<?xml version="1.0" standalone="no"?>
<!DOCTYPE svg PUBLIC "-//W3C//DTD SVG 1.1//EN" "http://www.w3.org/Graphics/SVG/1.1/DTD/svg11.dtd" >
<svg xmlns="http://www.w3.org/2000/svg">
<metadata>Generated by IcoMoon</metadata>
<defs>
<font id="icomoon" horiz-adv-x="1024">
<font-face units-per-em="1024" ascent="960" descent="-64" />
<missing-glyph horiz-adv-x="1024" />
<glyph unicode="&#x20;" horiz-adv-x="512" d="" />
<glyph unicode="&#xe900;" glyph-name="account_address" horiz-adv-x="1138" d="M398.222-52.622c-5.689 0-5.689 0-11.378 0s-5.689 0-11.378 5.689l-307.2 153.6c-17.067 5.689-28.444 22.756-39.822 34.133-11.378 17.067-17.067 34.133-17.067 51.2v620.089c0 17.067 5.689 34.133 11.378 51.2s22.756 28.444 34.133 34.133c17.067 5.689 34.133 11.378 51.2 11.378s34.133 0 51.2-11.378l238.933-119.467 324.267 159.289c5.689 0 5.689 5.689 11.378 5.689s5.689 0 11.378 0 5.689 0 11.378 0 5.689 0 11.378-5.689l307.2-153.6c17.067-5.689 28.444-22.756 39.822-34.133 11.378-17.067 17.067-34.133 17.067-51.2v-614.4c0-17.067-5.689-34.133-11.378-51.2s-22.756-28.444-34.133-34.133c-17.067-11.378-28.444-11.378-45.511-17.067-17.067 0-34.133 5.689-51.2 11.378l-250.311 125.156-324.267-159.289c-5.689 0-5.689-5.689-11.378-5.689 0 0-5.689 0-5.689-5.689zM443.733 704v-642.844l256 125.156v648.533l-256-130.844zM113.778 823.467c0 0 0 0 0 0-5.689 0-5.689 0-5.689 0s-5.689-5.689-5.689-5.689c0 0 0-5.689 0-5.689v-614.4c0 0 0-5.689 0-5.689s5.689-5.689 5.689-5.689l250.311-125.156v642.844l-238.933 119.467c0 0-5.689 0-5.689 0zM785.067 192l233.244-119.467c0 0 5.689 0 5.689 0s5.689 0 5.689 0c0 0 5.689 5.689 5.689 5.689s0 5.689 0 5.689v614.4c0 0 0 5.689 0 5.689s-5.689 5.689-5.689 5.689l-250.311 125.156v-642.844z" />
<glyph unicode="&#xe901;" glyph-name="account_dashboard" d="M819.2-53.76h-614.4c-25.6 0-46.080 10.24-61.44 25.6s-25.6 40.96-25.6 61.44v424.96l-35.84-35.84c-15.36-15.36-40.96-15.36-56.32 0s-15.36 40.96 0 56.32l460.8 460.8c15.36 15.36 40.96 15.36 56.32 0l460.8-460.8c15.36-15.36 15.36-40.96 0-56.32s-40.96-15.36-56.32 0l-35.84 35.84v-419.84c0-25.6-10.24-46.080-25.6-61.44-20.48-20.48-40.96-30.72-66.56-30.72zM665.6 28.16h153.6c5.12 0 5.12 0 10.24 5.12s5.12 5.12 5.12 10.24v491.52l-322.56 317.44-317.44-317.44v-496.64c0-5.12 0-5.12 5.12-10.24 0 0 5.12-5.12 10.24-5.12h153.6c5.12 0 5.12 0 10.24 5.12 0 0 5.12 5.12 5.12 10.24v204.8c0 25.6 10.24 46.080 25.6 61.44s40.96 25.6 61.44 25.6h102.4c25.6 0 46.080-10.24 61.44-25.6s25.6-40.96 25.6-61.44v-204.8c0-5.12 0-5.12 5.12-10.24s0 0 5.12 0zM445.44 28.16h128c0 5.12 0 10.24 0 10.24v204.8c0 5.12 0 5.12-5.12 10.24s-5.12 5.12-10.24 5.12h-97.28c-5.12 0-5.12 0-10.24-5.12 0 0-5.12-5.12-5.12-10.24v-204.8c5.12-5.12 0-10.24 0-10.24z" />
<glyph unicode="&#xe902;" glyph-name="account_details" horiz-adv-x="819" d="M665.6 949.76h-512c-76.8 0-143.36-66.56-143.36-143.36v-716.8c0-76.8 61.44-143.36 143.36-143.36h512c76.8 0 143.36 61.44 143.36 143.36v716.8c0 76.8-66.56 143.36-143.36 143.36zM727.040 89.6c0-35.84-30.72-61.44-61.44-61.44h-512c-35.84 0-61.44 30.72-61.44 61.44v716.8c0 35.84 30.72 61.44 61.44 61.44h512c35.84 0 61.44-30.72 61.44-61.44v-716.8zM409.6 407.040c76.8 0 143.36 61.44 143.36 143.36s-66.56 143.36-143.36 143.36-143.36-66.56-143.36-143.36 66.56-143.36 143.36-143.36zM409.6 611.84c35.84 0 61.44-30.72 61.44-61.44s-25.6-61.44-61.44-61.44-61.44 25.6-61.44 61.44 25.6 61.44 61.44 61.44zM409.6 386.56c-133.12 0-245.76-87.040-245.76-194.56 0-20.48 15.36-40.96 40.96-40.96s40.96 15.36 40.96 40.96c0 61.44 76.8 112.64 163.84 112.64s163.84-51.2 163.84-112.64c0-20.48 15.36-40.96 40.96-40.96s40.96 15.36 40.96 40.96c0 107.52-112.64 194.56-245.76 194.56z" />
<glyph unicode="&#xe903;" glyph-name="account_download" horiz-adv-x="878" d="M429.105 413.867c141.41 0 253.562 117.029 253.562 253.562s-117.029 253.562-253.562 253.562-253.562-112.152-253.562-253.562 112.152-253.562 253.562-253.562zM429.105 852.724c102.4 0 180.419-82.895 180.419-185.295s-82.895-185.295-180.419-185.295-180.419 82.895-180.419 185.295 78.019 185.295 180.419 185.295zM594.895 287.086c4.876 19.505-4.876 39.010-24.381 43.886-43.886 14.629-92.648 19.505-141.41 19.505-229.181 0-414.476-156.038-414.476-341.333 0-19.505 14.629-39.010 39.010-39.010s39.010 14.629 39.010 39.010c0 151.162 151.162 268.19 341.333 268.19 39.010 0 82.895-4.876 121.905-19.505 14.629 0 34.133 9.752 39.010 29.257zM848.457 150.552c-14.629 14.629-39.010 14.629-53.638 0l-48.762-48.762v258.438c0 19.505-14.629 39.010-39.010 39.010s-39.010-14.629-39.010-39.010v-258.438l-48.762 48.762c-14.629 14.629-39.010 14.629-53.638 0s-14.629-39.010 0-53.638l107.276-117.029c4.876-4.876 4.876-4.876 9.752-9.752v0 0c4.876 0 9.752-4.876 14.629-4.876s9.752 0 14.629 4.876v0 0 0c4.876 0 9.752 4.876 9.752 9.752v0l107.276 117.029c34.133 19.505 34.133 43.886 19.505 53.638z" />
<glyph unicode="&#xe904;" glyph-name="account_downloads" d="M796.444-52.622h-568.889c-56.889 0-108.089 22.756-153.6 62.578s-62.578 96.711-62.578 153.6v56.889c0 22.756 17.067 45.511 45.511 45.511s45.511-17.067 45.511-45.511v-56.889c0-34.133 11.378-68.267 39.822-91.022 22.756-22.756 56.889-39.822 91.022-39.822h568.889c34.133 0 68.267 11.378 91.022 39.822s39.822 56.889 39.822 91.022v56.889c0 22.756 17.067 45.511 45.511 45.511s45.511-17.067 45.511-45.511v-56.889c0-56.889-22.756-108.089-62.578-153.6s-108.089-62.578-164.978-62.578zM512 174.933c-5.689 0-11.378 0-17.067 5.689-5.689 0-11.378 5.689-11.378 11.378l-227.556 227.556c-17.067 17.067-17.067 45.511 0 62.578s45.511 17.067 62.578 0l153.6-153.6v574.578c0 22.756 17.067 45.511 45.511 45.511s39.822-22.756 39.822-45.511v-580.267l153.6 153.6c17.067 17.067 45.511 17.067 62.578 0s17.067-45.511 0-62.578l-227.556-227.556c-5.689-5.689-11.378-5.689-11.378-11.378-11.378 5.689-17.067 0-22.756 0z" />
<glyph unicode="&#xe905;" glyph-name="account_location" horiz-adv-x="878" d="M429.105 413.867c141.41 0 253.562 117.029 253.562 253.562s-117.029 253.562-253.562 253.562-253.562-112.152-253.562-253.562 112.152-253.562 253.562-253.562zM429.105 852.724c102.4 0 180.419-82.895 180.419-185.295s-82.895-185.295-180.419-185.295-180.419 82.895-180.419 185.295 78.019 185.295 180.419 185.295zM458.362 350.476c-9.752 0-19.505 0-29.257 0-229.181 0-414.476-156.038-414.476-341.333 0-19.505 14.629-39.010 39.010-39.010s39.010 14.629 39.010 39.010c0 151.162 151.162 268.19 341.333 268.19 9.752 0 14.629 0 24.381 0 19.505 0 39.010 14.629 39.010 34.133-4.876 24.381-19.505 39.010-39.010 39.010zM702.171 350.476c-87.771 0-160.914-68.267-160.914-151.162 0-48.762 19.505-73.143 73.143-151.162 9.752-14.629 24.381-34.133 43.886-58.514v0c4.876-4.876 9.752-9.752 19.505-14.629 4.876-4.876 14.629-4.876 24.381-4.876s14.629 0 24.381 4.876 14.629 9.752 19.505 14.629c14.629 24.381 29.257 43.886 43.886 58.514 58.514 78.019 73.143 97.524 73.143 151.162 0 87.771-73.143 151.162-160.914 151.162zM726.552 96.914c-9.752-9.752-14.629-24.381-24.381-34.133-9.752 14.629-19.505 24.381-24.381 34.133-58.514 73.143-58.514 82.895-58.514 107.276 0 43.886 39.010 78.019 87.771 78.019s87.771-34.133 87.771-78.019c-4.876-29.257-9.752-34.133-68.267-107.276z" />
<glyph unicode="&#xe906;" glyph-name="account_login" horiz-adv-x="1138" d="M625.778-52.622h-398.222c-56.889 0-108.089 22.756-153.6 62.578s-62.578 96.711-62.578 153.6v568.889c0 56.889 22.756 108.089 62.578 153.6 45.511 39.822 96.711 62.578 153.6 62.578h398.222c56.889 0 108.089-22.756 153.6-62.578 39.822-45.511 62.578-96.711 62.578-153.6v-56.889c0-22.756-17.067-45.511-45.511-45.511s-45.511 22.756-45.511 45.511v56.889c0 34.133-11.378 68.267-39.822 91.022-22.756 22.756-56.889 39.822-91.022 39.822h-392.533c-34.133-5.689-68.267-17.067-91.022-39.822s-34.133-56.889-34.133-91.022v-568.889c0-34.133 11.378-68.267 39.822-91.022 22.756-22.756 56.889-39.822 91.022-39.822h398.222c34.133 0 68.267 11.378 91.022 39.822s39.822 56.889 39.822 91.022v56.889c0 22.756 17.067 45.511 45.511 45.511s45.511-17.067 45.511-45.511v-56.889c0-56.889-22.756-108.089-62.578-153.6s-108.089-62.578-164.978-62.578zM512 174.933c-11.378 0-22.756 5.689-28.444 11.378l-227.556 227.556c-5.689 5.689-11.378 11.378-11.378 17.067s-5.689 11.378-5.689 17.067 0 11.378 5.689 17.067c0 5.689 5.689 11.378 11.378 11.378l227.556 227.556c17.067 17.067 45.511 17.067 62.578 0s17.067-45.511 0-62.578l-159.289-147.911h694.044c22.756 0 45.511-17.067 45.511-45.511s-22.756-45.511-45.511-45.511h-694.044l153.6-153.6c17.067-17.067 17.067-45.511 0-62.578-5.689-5.689-17.067-11.378-28.444-11.378z" />
<glyph unicode="&#xe907;" glyph-name="account_logout" horiz-adv-x="1138" d="M455.111-52.622h-227.556c-56.889 0-108.089 22.756-153.6 62.578s-62.578 96.711-62.578 153.6v568.889c0 56.889 22.756 108.089 62.578 153.6 45.511 39.822 96.711 62.578 153.6 62.578h227.556c56.889 0 108.089-22.756 153.6-62.578 39.822-45.511 62.578-96.711 62.578-153.6v-56.889c0-22.756-17.067-45.511-45.511-45.511s-45.511 22.756-45.511 45.511v56.889c0 34.133-11.378 68.267-39.822 91.022-17.067 22.756-51.2 34.133-85.333 34.133h-227.556c-34.133 0-68.267-11.378-91.022-34.133s-34.133-56.889-34.133-91.022v-568.889c0-34.133 11.378-68.267 39.822-91.022 22.756-22.756 56.889-39.822 91.022-39.822h227.556c34.133 0 68.267 11.378 91.022 39.822 22.756 22.756 39.822 56.889 39.822 91.022v56.889c0 22.756 17.067 45.511 45.511 45.511s45.511-17.067 45.511-45.511v-56.889c0-56.889-22.756-108.089-62.578-153.6-56.889-39.822-108.089-62.578-164.978-62.578zM853.333 174.933c-11.378 0-22.756 5.689-28.444 11.378-17.067 17.067-17.067 45.511 0 62.578l153.6 153.6h-694.044c-22.756 0-45.511 22.756-45.511 45.511s22.756 45.511 45.511 45.511h694.044l-153.6 153.6c-17.067 17.067-17.067 45.511 0 62.578s45.511 17.067 62.578 0l227.556-227.556c5.689-5.689 5.689-11.378 11.378-11.378 0-5.689 5.689-11.378 5.689-17.067s0-11.378-5.689-17.067c0-5.689-5.689-11.378-11.378-11.378l-227.556-227.556c-11.378-17.067-22.756-22.756-34.133-22.756z" />
<glyph unicode="&#xe908;" glyph-name="account_navigation" d="M512 949.76c-276.48 0-501.76-225.28-501.76-501.76s225.28-501.76 501.76-501.76 501.76 225.28 501.76 501.76-225.28 501.76-501.76 501.76zM512 28.16c-230.4 0-419.84 189.44-419.84 419.84s189.44 419.84 419.84 419.84 419.84-189.44 419.84-419.84-189.44-419.84-419.84-419.84zM691.2 693.76l-455.68-204.8c-15.36-5.12-25.6-20.48-25.6-35.84s10.24-30.72 25.6-35.84l174.080-56.32 56.32-174.080c5.12-15.36 20.48-25.6 35.84-25.6 0 0 0 0 0 0 15.36 0 30.72 10.24 35.84 20.48l199.68 455.68c5.12 15.36 5.12 30.72-10.24 40.96-5.12 15.36-20.48 20.48-35.84 15.36zM512 309.76l-30.72 97.28c-5.12 10.24-15.36 20.48-25.6 25.6l-97.28 30.72 271.36 122.88-117.76-276.48z" />
<glyph unicode="&#xe909;" glyph-name="account_order" horiz-adv-x="838" d="M349.091 527.127h-116.364c-18.618 0-37.236 13.964-37.236 37.236s18.618 32.582 37.236 32.582h116.364c18.618 0 37.236-13.964 37.236-37.236s-18.618-32.582-37.236-32.582zM595.782 727.273c0 18.618-13.964 37.236-37.236 37.236h-325.818c-18.618 0-37.236-18.618-37.236-37.236s13.964-37.236 37.236-37.236h325.818c18.618 0 37.236 18.618 37.236 37.236zM754.036 350.255v446.836c0 32.582-13.964 65.164-37.236 88.436s-55.855 37.236-88.436 37.236h-465.455c-32.582 0-65.164-9.309-88.436-37.236-27.927-23.273-37.236-55.855-37.236-88.436v-651.636c0-32.582 13.964-65.164 37.236-88.436s55.855-37.236 88.436-37.236h260.655c37.236-27.927 88.436-46.545 139.636-46.545 130.327 0 237.382 107.055 237.382 237.382 0 51.2-13.964 97.745-46.545 139.636zM363.055 84.945h-200.145c-13.964 0-32.582 4.655-41.891 18.618-9.309 9.309-18.618 23.273-18.618 41.891v651.636c0 13.964 4.655 27.927 18.618 41.891 9.309 9.309 23.273 18.618 41.891 18.618h465.455c13.964 0 27.927-4.655 41.891-18.618 9.309-9.309 18.618-23.273 18.618-41.891v-386.327c-37.236 23.273-79.127 37.236-125.673 37.236-130.327 0-237.382-107.055-237.382-237.382 0-46.545 13.964-88.436 37.236-125.673zM563.2 38.4c-4.655 0-4.655 0-9.309 0-41.891 0-79.127 18.618-107.055 46.545-32.582 27.927-51.2 74.473-51.2 121.018 0 93.091 74.473 167.564 167.564 167.564 46.545 0 93.091-18.618 121.018-51.2 27.927-27.927 41.891-65.164 46.545-107.055 0-4.655 0-4.655 0-9.309 4.655-88.436-74.473-167.564-167.564-167.564zM539.927 126.836c-9.309 0-18.618 4.655-23.273 9.309l-37.236 37.236c-13.964 13.964-13.964 37.236 0 51.2s37.236 13.964 51.2 0l13.964-13.964 74.473 74.473c13.964 13.964 37.236 13.964 51.2 0s13.964-37.236 0-51.2l-97.745-97.745c-18.618-9.309-27.927-9.309-32.582-9.309z" />
<glyph unicode="&#xe90a;" glyph-name="account_orders" horiz-adv-x="819" d="M665.6-53.76h-512c-35.84 0-71.68 15.36-97.28 40.96s-46.080 66.56-46.080 102.4v716.8c0 35.84 15.36 71.68 40.96 97.28 30.72 30.72 66.56 46.080 102.4 46.080h512c35.84 0 71.68-15.36 97.28-40.96s40.96-61.44 40.96-97.28v-716.8c0-35.84-15.36-71.68-40.96-97.28s-61.44-51.2-97.28-51.2zM153.6 867.84c-15.36 0-30.72-5.12-46.080-20.48-10.24-10.24-15.36-25.6-15.36-40.96v-716.8c0-15.36 5.12-35.84 20.48-46.080s30.72-20.48 46.080-20.48h512c15.36 0 35.84 5.12 46.080 20.48s20.48 30.72 20.48 46.080v716.8c0 15.36-5.12 30.72-20.48 46.080-10.24 10.24-25.6 20.48-46.080 20.48h-517.12zM563.2 151.040c-20.48 0-40.96 15.36-40.96 40.96v153.6c0 20.48 15.36 40.96 40.96 40.96s40.96-15.36 40.96-40.96v-153.6c0-20.48-20.48-40.96-40.96-40.96zM409.6 151.040c-20.48 0-40.96 15.36-40.96 40.96s15.36 40.96 35.84 40.96v0c20.48 0 40.96-15.36 40.96-40.96s-15.36-40.96-35.84-40.96zM256 151.040c-20.48 0-40.96 15.36-40.96 40.96s15.36 40.96 35.84 40.96v0c20.48 0 40.96-15.36 40.96-40.96s-15.36-40.96-35.84-40.96zM409.6 304.64c-20.48 0-40.96 15.36-40.96 40.96s15.36 40.96 35.84 40.96v0c20.48 0 40.96-15.36 40.96-40.96s-15.36-40.96-35.84-40.96zM256 304.64c-20.48 0-40.96 15.36-40.96 40.96s15.36 40.96 35.84 40.96v0c20.48 0 40.96-15.36 40.96-40.96s-15.36-40.96-35.84-40.96zM563.2 458.24c-20.48 0-40.96 15.36-40.96 40.96s15.36 40.96 35.84 40.96v0c20.48 0 40.96-15.36 40.96-40.96s-15.36-40.96-35.84-40.96zM409.6 458.24c-20.48 0-35.84 20.48-35.84 40.96s15.36 40.96 35.84 40.96v0c20.48 0 40.96-15.36 40.96-40.96s-20.48-40.96-40.96-40.96zM256 458.24c-20.48 0-35.84 20.48-35.84 40.96s15.36 40.96 35.84 40.96v0c20.48 0 40.96-15.36 40.96-40.96s-20.48-40.96-40.96-40.96zM563.2 663.040h-307.2c-20.48 0-40.96 20.48-40.96 40.96s20.48 40.96 40.96 40.96h307.2c20.48 0 40.96-15.36 40.96-40.96s-20.48-40.96-40.96-40.96z" />
<glyph unicode="&#xe90b;" glyph-name="account_register_form" horiz-adv-x="1138" d="M967.111-46.933h-796.444c-39.822 0-79.644 17.067-108.089 45.511s-51.2 68.267-51.2 108.089v512c0 39.822 17.067 79.644 45.511 108.089 34.133 34.133 73.956 51.2 113.778 51.2h238.933v11.378c0 39.822 17.067 79.644 45.511 108.089 56.889 56.889 164.978 56.889 221.867 0 28.444-28.444 45.511-68.267 45.511-108.089v-11.378h244.622c39.822 0 79.644-17.067 108.089-45.511s45.511-68.267 45.511-108.089v-512c0-39.822-17.067-79.644-45.511-108.089s-68.267-51.2-108.089-51.2zM170.667 692.622c-17.067 0-34.133-5.689-51.2-22.756-11.378-11.378-17.067-34.133-17.067-51.2v-512c0-17.067 5.689-39.822 22.756-51.2s34.133-22.756 51.2-22.756h796.444c17.067 0 39.822 5.689 51.2 22.756s22.756 34.133 22.756 51.2v512c0 17.067-5.689 34.133-22.756 51.2-11.378 11.378-28.444 22.756-51.2 22.756h-250.311c-5.689-22.756-22.756-51.2-39.822-68.267-56.889-56.889-159.289-56.889-221.867 0-22.756 17.067-34.133 39.822-39.822 68.267h-250.311zM500.622 732.444c0-17.067 5.689-39.822 22.756-51.2 28.444-28.444 73.956-28.444 102.4 0 11.378 11.378 22.756 34.133 22.756 51.2v56.889c0 17.067-5.689 34.133-22.756 51.2-28.444 28.444-73.956 28.444-102.4 0-17.067-11.378-22.756-34.133-22.756-51.2v-56.889zM557.511 123.733c-17.067 0-34.133 11.378-39.822 28.444-11.378 22.756-22.756 45.511-45.511 62.578-45.511 28.444-102.4 28.444-147.911 0-22.756-17.067-39.822-34.133-45.511-62.578-5.689-22.756-34.133-34.133-56.889-28.444s-34.133 34.133-28.444 56.889c17.067 39.822 39.822 79.644 79.644 102.4 0 0 5.689 5.689 5.689 5.689-28.444 28.444-39.822 68.267-39.822 102.4 0 28.444 11.378 62.578 28.444 85.333s39.822 45.511 68.267 56.889c34.133 17.067 62.578 17.067 91.022 11.378s56.889-22.756 79.644-45.511c22.756-22.756 34.133-51.2 45.511-79.644 5.689-28.444 0-56.889-11.378-85.333-5.689-17.067-17.067-34.133-28.444-45.511 0 0 5.689-5.689 5.689-5.689 34.133-28.444 62.578-62.578 79.644-102.4 5.689-22.756-5.689-45.511-28.444-56.889 0 0-5.689 0-11.378 0zM398.222 465.067c-11.378 0-17.067 0-28.444-5.689s-22.756-17.067-28.444-28.444-11.378-22.756-11.378-39.822c0-17.067 5.689-39.822 22.756-51.2 22.756-22.756 62.578-28.444 91.022-11.378 11.378 5.689 22.756 17.067 28.444 34.133 5.689 11.378 5.689 28.444 5.689 39.822s-17.067 28.444-28.444 39.822c-11.378 11.378-22.756 17.067-39.822 17.067 0 5.689-5.689 5.689-11.378 5.689zM853.333 180.622h-113.778c-22.756 0-45.511 17.067-45.511 45.511s17.067 45.511 45.511 45.511h113.778c22.756 0 45.511-17.067 45.511-45.511s-22.756-45.511-45.511-45.511zM910.222 408.178h-170.667c-22.756 0-45.511 17.067-45.511 45.511s17.067 45.511 45.511 45.511h170.667c22.756 0 45.511-17.067 45.511-45.511s-22.756-45.511-45.511-45.511z" />
<glyph unicode="&#xe90c;" glyph-name="Add-to-Cart" horiz-adv-x="979" d="M739.061-32.835c-8.904 0-17.809 0-26.713 4.452-26.713 4.452-48.974 17.809-66.783 35.617s-31.165 40.070-35.617 66.783c-4.452 26.713-4.452 53.426 8.904 75.687 0 4.452 4.452 8.904 8.904 13.357h-271.583c13.357-17.809 17.809-44.522 17.809-66.783 0-26.713-8.904-53.426-22.261-75.687s-35.617-40.070-57.878-48.974c-22.261-8.904-48.974-13.357-75.687-8.904s-48.974 17.809-66.783 35.617c-17.809 17.809-31.165 40.070-35.617 66.783s-4.452 53.426 8.904 75.687c0 17.809 4.452 26.713 8.904 31.165-4.452 0-8.904 4.452-13.357 8.904-17.809 8.904-26.713 22.261-31.165 35.617s-8.904 31.165-4.452 48.974c4.452 17.809 8.904 31.165 22.261 44.522l102.4 102.4-80.139 373.983c0 0 0 0 0 0l-13.357 75.687h-71.235c-17.809 0-35.617 13.357-35.617 35.617s17.809 31.165 35.617 31.165h97.948c17.809 0 31.165-13.357 35.617-26.713l13.357-75.687h743.513c13.357 0 22.261-4.452 26.713-17.809s4.452-22.261 0-31.165l-195.896-396.243c-4.452-13.357-17.809-17.809-31.165-17.809h-476.383l-102.4-102.4c-4.452-4.452-4.452-4.452-4.452-8.904s0-4.452 0-8.904 4.452-4.452 4.452-8.904c4.452 0 4.452-4.452 8.904-4.452h574.33c35.617 0 66.783-13.357 93.496-40.070s40.070-57.878 40.070-93.496c0-26.713-8.904-53.426-22.261-75.687s-35.617-40.070-57.878-48.974c-22.261 0-40.070-4.452-53.426-4.452zM739.061 167.513c-13.357 0-26.713-4.452-35.617-8.904-8.904-8.904-17.809-17.809-22.261-31.165s-4.452-26.713-4.452-40.070c4.452-13.357 8.904-22.261 17.809-35.617 8.904-8.904 22.261-13.357 35.617-17.809s26.713 0 40.070 4.452c13.357 4.452 22.261 13.357 31.165 22.261s8.904 22.261 8.904 35.617c0 17.809-8.904 35.617-17.809 44.522-22.261 17.809-40.070 26.713-53.426 26.713zM240.417 167.513c-13.357 0-26.713-4.452-35.617-8.904-8.904-8.904-17.809-17.809-22.261-31.165s-8.904-26.713-4.452-40.070c4.452-13.357 8.904-22.261 17.809-35.617 8.904-8.904 22.261-13.357 35.617-17.809s26.713 0 40.070 4.452c13.357 4.452 22.261 13.357 31.165 22.261s8.904 22.261 8.904 35.617c0 17.809-8.904 35.617-17.809 44.522-17.809 17.809-35.617 26.713-53.426 26.713zM271.583 430.191h445.217l164.73 329.461h-676.73l66.783-329.461z" />
<glyph unicode="&#xe90d;" glyph-name="Aditional-Information" d="M512-54.691c-32.582 0-65.164 4.655-97.745 9.309-97.745 18.618-186.182 65.164-256 134.982s-116.364 158.255-134.982 256c-23.273 102.4-9.309 200.145 27.927 293.236s102.4 167.564 186.182 223.418c83.782 55.855 176.873 83.782 279.273 83.782 134.982 0 260.655-51.2 353.745-148.945 93.091-93.091 144.291-218.764 144.291-353.745 0-97.745-27.927-195.491-83.782-279.273s-134.982-144.291-223.418-186.182c-65.164-18.618-130.327-32.582-195.491-32.582zM512 880.873c-83.782 0-167.564-23.273-237.382-74.473s-125.673-116.364-158.255-195.491c-32.582-79.127-41.891-162.909-27.927-246.691 18.618-83.782 55.855-158.255 116.364-218.764s134.982-102.4 218.764-116.364c83.782-18.618 167.564-9.309 246.691 23.273s144.291 88.436 195.491 158.255c46.545 69.818 74.473 153.6 74.473 237.382 0 116.364-46.545 223.418-125.673 307.2-79.127 79.127-186.182 125.673-302.545 125.673zM563.2 205.964h-51.2c-18.618 0-37.236 13.964-37.236 37.236v172.218h-13.964c-18.618 0-37.236 13.964-37.236 37.236s13.964 37.236 37.236 37.236h51.2c18.618 0 37.236-13.964 37.236-37.236v-172.218h18.618c18.618 0 37.236-13.964 37.236-37.236s-23.273-37.236-41.891-37.236zM512 620.218c-18.618 0-37.236 13.964-37.236 37.236s13.964 37.236 32.582 37.236v0c18.618 0 37.236-13.964 37.236-37.236s-13.964-37.236-32.582-37.236z" />
<glyph unicode="&#xe90e;" glyph-name="Advance-Coupon" horiz-adv-x="1408" d="M1376 614.4c19.2 6.4 32 25.6 32 44.8v179.2c0 57.6-44.8 108.8-108.8 108.8h-1190.4c-64-6.4-108.8-51.2-108.8-108.8v-179.2c0-19.2 12.8-38.4 32-44.8 6.4 0 121.6-51.2 121.6-166.4s-115.2-166.4-121.6-166.4c-19.2-6.4-32-25.6-32-44.8v-179.2c0-57.6 44.8-108.8 108.8-108.8h1190.4c57.6 0 108.8 44.8 108.8 108.8v179.2c0 19.2-12.8 38.4-32 44.8-6.4 0-121.6 51.2-121.6 166.4s115.2 166.4 121.6 166.4zM1312 211.2v-147.2c0-6.4-6.4-12.8-12.8-12.8h-1190.4c-6.4 0-12.8 6.4-12.8 12.8v147.2c44.8 32 147.2 102.4 147.2 236.8s-102.4 211.2-147.2 236.8v153.6c0 6.4 6.4 12.8 12.8 12.8h1190.4c6.4 0 12.8-6.4 12.8-12.8v-147.2c-44.8-32-147.2-102.4-147.2-236.8 6.4-140.8 102.4-217.6 147.2-243.2zM556.8 492.8c70.4 0 134.4 57.6 134.4 134.4s-64 134.4-134.4 134.4c-70.4 0-134.4-57.6-134.4-134.4s64-134.4 134.4-134.4zM556.8 672c25.6 0 44.8-19.2 44.8-44.8 0-32-25.6-44.8-44.8-44.8s-44.8 19.2-44.8 44.8c0 25.6 19.2 44.8 44.8 44.8zM851.2 403.2c-70.4 0-134.4-57.6-134.4-134.4 0-70.4 57.6-134.4 134.4-134.4 70.4 0 134.4 57.6 134.4 134.4 0 70.4-64 134.4-134.4 134.4zM851.2 224c-25.6 0-44.8 19.2-44.8 44.8 0 32 19.2 44.8 44.8 44.8 32 0 44.8-19.2 44.8-44.8 6.4-32-19.2-44.8-44.8-44.8zM940.8 684.8c-19.2 19.2-44.8 19.2-64 0l-448-448c-19.2-19.2-19.2-44.8 0-64 6.4-6.4 19.2-12.8 32-12.8s25.6 6.4 32 12.8l454.4 454.4c12.8 19.2 12.8 44.8-6.4 57.6z" />
<glyph unicode="&#xe90f;" glyph-name="Advance-Search" horiz-adv-x="979" d="M912.696 109.635l-222.609 209.252c0 4.452 4.452 8.904 4.452 13.357 17.809 44.522 31.165 89.043 31.165 129.113 8.904 0 13.357 4.452 22.261 8.904l40.070 22.261c17.809 8.904 31.165 26.713 35.617 44.522s4.452 40.070-8.904 57.878c-8.904 4.452-8.904 8.904-8.904 8.904s4.452 4.452 13.357 4.452c40.070 0 75.687 35.617 75.687 75.687v35.617c0 40.070-35.617 75.687-75.687 75.687-8.904 0-13.357 0-13.357 0s0 4.452 4.452 13.357c8.904 17.809 13.357 40.070 8.904 57.878s-17.809 35.617-35.617 44.522l-40.070 22.261c-31.165 17.809-75.687 8.904-97.948-26.713l-4.452-4.452c-4.452-8.904-8.904-8.904-8.904-8.904s-4.452 4.452-8.904 8.904v0c-17.809 35.617-62.33 44.522-97.948 26.713l-35.617-22.261c-17.809-8.904-31.165-26.713-35.617-44.522s-4.452-40.070 8.904-57.878c0-4.452 4.452-4.452 4.452-8.904-4.452 0-4.452 4.452-8.904 4.452-151.374 44.522-316.104-40.070-387.339-186.991-80.139-169.183 0-373.983 169.183-454.122 44.522-22.261 93.496-31.165 138.017-31.165 40.070 0 84.591 8.904 115.757 22.261s57.878 26.713 84.591 44.522l204.8-213.704c17.809-17.809 40.070-26.713 62.33-26.713s44.522 8.904 62.33 26.713c40.070 40.070 40.070 93.496 4.452 129.113zM454.122 719.583c0 4.452 4.452 8.904 8.904 8.904 31.165 0 57.878 13.357 71.235 35.617s13.357 48.974-4.452 80.139c0 4.452 0 4.452 0 4.452s0 4.452 4.452 4.452l40.070 17.809h4.452v-4.452c17.809-26.713 40.070-44.522 66.783-44.522s48.974 17.809 66.783 44.522v4.452c0 0 4.452 4.452 4.452 0l40.070-22.261c0 4.452 0 0 0 0v-4.452c-17.809-26.713-17.809-57.878-4.452-80.139s40.070-35.617 71.235-35.617c4.452 0 8.904-4.452 8.904-8.904v-40.070c0-4.452-4.452-8.904-8.904-8.904-31.165 0-57.878-13.357-71.235-35.617-13.357-17.809-13.357-44.522 4.452-75.687 0-4.452 0-8.904-4.452-13.357l-40.070-22.261h-4.452l-4.452 4.452c-17.809 26.713-40.070 44.522-66.783 44.522s-48.974-17.809-66.783-44.522v-4.452c0 0-4.452-4.452-4.452 0l-31.165 26.713c-4.452 0-4.452 4.452-4.452 4.452v4.452c17.809 26.713 17.809 57.878 4.452 80.139s-40.070 35.617-71.235 35.617c-4.452 0-8.904 4.452-8.904 8.904v35.617zM480.835 216.487c-71.235-26.713-142.47-22.261-209.252 8.904s-115.757 89.043-142.47 151.374c-26.713 71.235-22.261 142.47 8.904 209.252 48.974 102.4 151.374 164.73 262.678 160.278-4.452-4.452-8.904-17.809-8.904-26.713v-40.070c0-40.070 35.617-75.687 75.687-75.687 8.904 0 13.357 0 13.357 0s0-4.452-4.452-13.357c-8.904-17.809-13.357-40.070-8.904-57.878s17.809-35.617 35.617-44.522l40.070-22.261c31.165-17.809 75.687-8.904 97.948 26.713l4.452 4.452c4.452 8.904 8.904 8.904 8.904 8.904s4.452-4.452 8.904-8.904l4.452-4.452c0-4.452 4.452-4.452 8.904-8.904 4.452-44.522-4.452-89.043-22.261-124.661-53.426-66.783-102.4-120.209-173.635-142.47zM863.722 29.496c-4.452-4.452-8.904-4.452-17.809-4.452-4.452 0-13.357 4.452-13.357 4.452l-200.348 213.704c8.904 8.904 13.357 13.357 17.809 22.261l213.704-200.348c8.904-13.357 8.904-26.713 0-35.617zM641.113 603.826c53.426 0 97.948 44.522 97.948 97.948s-44.522 102.4-97.948 102.4c-53.426 0-97.948-44.522-97.948-97.948s44.522-102.4 97.948-102.4zM641.113 732.939c17.809 0 31.165-13.357 31.165-31.165s-13.357-35.617-31.165-35.617c-17.809 0-35.617 13.357-35.617 31.165s17.809 35.617 35.617 35.617z" />
<glyph unicode="&#xe910;" glyph-name="Archive-Description" horiz-adv-x="1073" d="M1024 881.981c-29.257 29.257-63.39 43.886-102.4 43.886h-770.438c-39.010 0-73.143-14.629-102.4-43.886s-43.886-63.39-43.886-102.4 14.629-78.019 43.886-107.276c19.505-19.505 43.886-34.133 68.267-39.010v-516.876c0-39.010 14.629-78.019 43.886-102.4 29.257-29.257 63.39-43.886 102.4-43.886h546.133c39.010 0 78.019 14.629 102.4 43.886 29.257 29.257 43.886 63.39 43.886 102.4v521.752c24.381 4.876 48.762 19.505 68.267 39.010 29.257 29.257 43.886 63.39 43.886 102.4s-14.629 73.143-43.886 102.4zM882.59 116.419c0-19.505-9.752-39.010-19.505-53.638-14.629-14.629-34.133-19.505-53.638-19.505h-546.133c-19.505 0-39.010 9.752-53.638 19.505-14.629 19.505-19.505 34.133-19.505 53.638v516.876h692.419v-516.876zM970.362 725.943c-14.629-14.629-34.133-19.505-53.638-19.505h-765.562c-19.505 0-39.010 9.752-53.638 19.505-9.752 14.629-19.505 34.133-19.505 53.638s9.752 34.133 24.381 48.762c14.629 14.629 34.133 19.505 53.638 19.505h770.438c19.505 0 39.010-9.752 53.638-19.505 14.629-14.629 19.505-34.133 19.505-53.638s-14.629-34.133-29.257-48.762zM429.105 408.99h219.429c19.505 0 39.010 14.629 39.010 39.010s-14.629 39.010-39.010 39.010h-219.429c-24.381-4.876-39.010-19.505-39.010-39.010s14.629-39.010 39.010-39.010zM497.371 223.695c0-19.505 14.629-39.010 39.010-39.010h165.79c19.505 0 39.010 14.629 39.010 39.010s-14.629 39.010-39.010 39.010h-165.79c-19.505-4.876-39.010-19.505-39.010-39.010zM370.59 184.686c19.505 0 39.010 14.629 39.010 39.010s-19.505 34.133-39.010 34.133v0c-19.505 0-34.133-14.629-34.133-39.010s14.629-34.133 34.133-34.133z" />
<glyph unicode="&#xe911;" glyph-name="Archive-Products" horiz-adv-x="1126" d="M1070.080 898.56c-30.72 30.72-66.56 46.080-107.52 46.080h-798.72c-40.96 0-76.8-15.36-107.52-46.080-25.6-30.72-46.080-66.56-46.080-107.52s15.36-81.92 46.080-107.52c20.48-20.48 46.080-35.84 71.68-40.96v-537.6c0-40.96 15.36-76.8 46.080-107.52s66.56-46.080 107.52-46.080h568.32c40.96 0 76.8 15.36 107.52 46.080s46.080 66.56 46.080 107.52v537.6c25.6 5.12 51.2 20.48 71.68 40.96 30.72 30.72 46.080 66.56 46.080 107.52-5.12 40.96-25.6 76.8-51.2 107.52zM921.6 104.96c0-20.48-10.24-40.96-20.48-51.2-15.36-15.36-30.72-20.48-51.2-20.48h-573.44c-20.48 0-40.96 10.24-51.2 20.48-15.36 15.36-20.48 35.84-20.48 51.2v532.48h716.8v-532.48zM1013.76 734.72c-15.36-15.36-30.72-20.48-51.2-20.48h-798.72c-20.48 0-40.96 10.24-51.2 20.48-15.36 15.36-20.48 35.84-20.48 51.2 0 20.48 10.24 40.96 20.48 51.2 15.36 15.36 35.84 20.48 51.2 20.48h798.72c20.48 0 40.96-10.24 51.2-20.48 15.36-15.36 20.48-30.72 20.48-51.2 0-15.36-5.12-35.84-20.48-51.2zM542.72 94.72c5.12-5.12 10.24-5.12 20.48-5.12 5.12 0 15.36 0 20.48 5.12l179.2 102.4c10.24 5.12 20.48 20.48 20.48 30.72v204.8c0 15.36-5.12 25.6-20.48 30.72l-179.2 102.4c-10.24 5.12-25.6 5.12-40.96 0l-179.2-102.4c-10.24-5.12-15.36-15.36-15.36-30.72v-204.8c0-15.36 5.12-25.6 20.48-30.72l174.080-102.4zM701.44 248.32l-102.4-56.32v117.76l102.4 56.32v-117.76zM563.2 494.080l102.4-56.32-102.4-56.32-102.4 56.32 102.4 56.32zM424.96 366.080l102.4-56.32v-117.76l-102.4 56.32v117.76z" />
<glyph unicode="&#xe912;" glyph-name="Archive-Result-Count" horiz-adv-x="1126" d="M1070.080 898.56c-30.72 30.72-66.56 46.080-107.52 46.080h-798.72c-40.96 0-76.8-15.36-107.52-46.080-25.6-30.72-46.080-66.56-46.080-107.52s15.36-76.8 46.080-107.52c20.48-20.48 46.080-35.84 71.68-40.96v-537.6c0-40.96 15.36-76.8 46.080-107.52s66.56-46.080 107.52-46.080h568.32c40.96 0 76.8 15.36 107.52 46.080s46.080 66.56 46.080 107.52v537.6c25.6 5.12 51.2 20.48 71.68 40.96 30.72 30.72 46.080 66.56 46.080 107.52s-25.6 76.8-51.2 107.52zM921.6 104.96c0-20.48-10.24-40.96-20.48-51.2-15.36-15.36-35.84-20.48-51.2-20.48h-573.44c-20.48 0-40.96 10.24-51.2 20.48-15.36 15.36-20.48 35.84-20.48 51.2v532.48h716.8v-532.48zM1013.76 734.72c-15.36-15.36-35.84-20.48-51.2-20.48h-798.72c-20.48 0-40.96 10.24-51.2 20.48-15.36 15.36-20.48 30.72-20.48 51.2s10.24 40.96 20.48 51.2c15.36 15.36 35.84 20.48 51.2 20.48h798.72c20.48 0 40.96-10.24 51.2-20.48 15.36-15.36 20.48-30.72 20.48-51.2s-5.12-35.84-20.48-51.2zM450.56 202.24c-20.48 0-40.96-15.36-40.96-40.96s15.36-40.96 40.96-40.96h225.28c20.48 0 40.96 15.36 40.96 40.96v343.040c0 20.48-15.36 40.96-40.96 40.96h-225.28c-20.48 0-40.96-20.48-40.96-40.96s15.36-40.96 40.96-40.96h189.44v-107.52h-189.44c-20.48 0-40.96-15.36-40.96-40.96s15.36-40.96 40.96-40.96h189.44v-81.92h-189.44z" />
<glyph unicode="&#xe913;" glyph-name="Archive-Title" horiz-adv-x="1073" d="M809.448-24.99h-546.133c-39.010 0-73.143 14.629-102.4 43.886s-43.886 63.39-43.886 102.4v512c-19.505 4.876-43.886 19.505-63.39 39.010-24.381 24.381-43.886 63.39-43.886 102.4s14.629 78.019 43.886 102.4c29.257 29.257 63.39 43.886 102.4 43.886h760.686c39.010 0 73.143-14.629 102.4-43.886s43.886-63.39 43.886-102.4c0-39.010-14.629-73.143-43.886-102.4-19.505-19.505-39.010-29.257-68.267-39.010v-512c0-39.010-14.629-73.143-43.886-102.4-24.381-24.381-63.39-43.886-97.524-43.886zM195.048 628.419v-507.124c0-19.505 9.752-39.010 19.505-48.762 14.629-14.629 29.257-19.505 48.762-19.505h541.257c19.505 0 39.010 9.752 48.762 19.505 14.629 14.629 19.505 29.257 19.505 48.762v507.124h-677.79zM156.038 701.562h760.686c19.505 0 39.010 9.752 48.762 19.505 14.629 14.629 19.505 34.133 19.505 48.762 0 19.505-9.752 39.010-19.505 48.762-14.629 14.629-29.257 19.505-48.762 19.505h-760.686c-19.505 0-39.010-9.752-48.762-19.505-14.629-14.629-19.505-34.133-19.505-48.762 0-19.505 9.752-39.010 19.505-48.762 14.629-9.752 29.257-19.505 48.762-19.505zM643.657 413.867h-214.552c-19.505 0-39.010 14.629-39.010 39.010s14.629 39.010 39.010 39.010h214.552c19.505 0 39.010-14.629 39.010-39.010s-19.505-39.010-39.010-39.010z" />
<glyph unicode="&#xe914;" glyph-name="Archive-View-Mode" horiz-adv-x="1073" d="M599.771 199.314l82.895-82.895c4.876-4.876 14.629-9.752 24.381-9.752s19.505 4.876 24.381 9.752c14.629 14.629 14.629 39.010 0 53.638l-82.895 82.895c-14.629 14.629-39.010 14.629-53.638 0-9.752-14.629-9.752-39.010 4.876-53.638zM1019.124 877.105c-29.257 29.257-63.39 43.886-102.4 43.886h-760.686c-39.010 0-73.143-14.629-102.4-43.886-24.381-29.257-43.886-63.39-43.886-102.4s14.629-73.143 43.886-102.4c19.505-19.505 43.886-34.133 68.267-39.010v-512c0-39.010 14.629-73.143 43.886-102.4s63.39-43.886 102.4-43.886h541.257c39.010 0 73.143 14.629 102.4 43.886s43.886 63.39 43.886 102.4v512c24.381 4.876 48.762 19.505 68.267 39.010 29.257 29.257 43.886 63.39 43.886 102.4-4.876 39.010-24.381 73.143-48.762 102.4zM877.714 121.295c0-19.505-9.752-39.010-19.505-48.762-14.629-14.629-34.133-19.505-48.762-19.505h-546.133c-19.505 0-39.010 9.752-48.762 19.505-14.629 14.629-19.505 34.133-19.505 48.762v507.124h682.667v-507.124zM965.486 721.067c-14.629-14.629-29.257-19.505-48.762-19.505h-760.686c-19.505 0-39.010 9.752-48.762 19.505-14.629 14.629-19.505 29.257-19.505 48.762s9.752 39.010 19.505 48.762c14.629 14.629 34.133 19.505 48.762 19.505h760.686c19.505 0 39.010-9.752 48.762-19.505 14.629-14.629 19.505-34.133 19.505-48.762s-4.876-34.133-19.505-48.762zM438.857 218.819c102.4 0 185.295 82.895 185.295 185.295s-82.895 180.419-185.295 180.419c-102.4 0-185.295-82.895-185.295-185.295s87.771-180.419 185.295-180.419zM438.857 511.39c58.514 0 112.152-48.762 112.152-112.152s-48.762-112.152-112.152-112.152-112.152 48.762-112.152 112.152 53.638 112.152 112.152 112.152z" />
<glyph unicode="&#xe915;" glyph-name="avatar" d="M1013.76 448c0 276.48-225.28 501.76-501.76 501.76s-501.76-225.28-501.76-501.76c0-163.84 76.8-307.2 199.68-399.36 0 0 5.12-5.12 5.12-5.12 81.92-61.44 184.32-97.28 291.84-97.28s209.92 35.84 291.84 97.28c5.12 0 5.12 5.12 5.12 5.12 128 92.16 209.92 235.52 209.92 399.36zM92.16 448c0 230.4 189.44 419.84 419.84 419.84s419.84-189.44 419.84-419.84c0-117.76-46.080-220.16-122.88-296.96-25.6 81.92-87.040 148.48-163.84 184.32 51.2 40.96 87.040 102.4 87.040 179.2 0 122.88-102.4 225.28-225.28 225.28s-225.28-102.4-225.28-225.28c0-71.68 35.84-138.24 87.040-179.2-76.8-35.84-138.24-102.4-163.84-184.32-66.56 76.8-112.64 179.2-112.64 296.96zM363.52 509.44c0 81.92 66.56 148.48 148.48 148.48s148.48-66.56 148.48-148.48c0-81.92-66.56-143.36-148.48-143.36s-148.48 61.44-148.48 143.36zM281.6 94.72c20.48 112.64 117.76 189.44 230.4 189.44s209.92-81.92 230.4-189.44c-66.56-46.080-148.48-71.68-230.4-71.68-87.040 5.12-163.84 30.72-230.4 71.68z" />
<glyph unicode="&#xe916;" glyph-name="Best-Selling-Product" horiz-adv-x="801" d="M587.687 648.348l-111.304 13.357-48.974 97.948c-13.357 22.261-48.974 22.261-57.878 0l-48.974-97.948-106.852-13.357c-13.357 0-22.261-8.904-26.713-26.713-4.452-13.357 0-26.713 8.904-35.617l75.687-75.687-17.809-111.304c0-13.357 4.452-26.713 13.357-31.165 4.452-4.452 13.357-4.452 17.809-4.452s8.904 0 13.357 4.452l93.496 48.974 93.496-48.974c13.357-4.452 26.713-4.452 35.617 4.452s13.357 22.261 13.357 31.165l-8.904 111.304 75.687 75.687c8.904 8.904 13.357 22.261 8.904 35.617 4.452 13.357-8.904 22.261-22.261 22.261zM467.478 550.4c-8.904-8.904-13.357-17.809-8.904-31.165l8.904-57.878-48.974 26.713c-8.904 4.452-22.261 4.452-31.165 0l-48.974-26.713 8.904 57.878c0 8.904 0 22.261-8.904 31.165l-44.522 40.070 57.878 8.904c8.904 0 22.261 8.904 26.713 17.809l22.261 53.426 26.713-53.426c4.452-13.357 13.357-22.261 26.713-22.261l57.878-8.904-44.522-35.617zM672.278 292.174c66.783 66.783 111.304 164.73 111.304 262.678 0 209.252-173.635 382.887-382.887 382.887s-382.887-173.635-382.887-382.887c0-106.852 40.070-195.896 111.304-262.678l-84.591-195.896c-4.452-13.357-4.452-22.261 4.452-35.617 8.904-8.904 22.261-13.357 31.165-13.357l115.757 22.261 66.783-97.948c4.452-8.904 17.809-13.357 26.713-13.357h4.452c13.357 0 22.261 8.904 26.713 22.261l80.139 191.443 75.687-191.443c4.452-13.357 13.357-17.809 26.713-22.261h4.452c8.904 0 22.261 4.452 26.713 13.357l62.33 97.948 115.757-22.261c13.357-4.452 22.261 0 31.165 13.357 8.904 8.904 8.904 22.261 4.452 35.617l-75.687 195.896zM284.939 60.661l-44.522 62.33c-8.904 13.357-22.261 17.809-35.617 13.357l-71.235-8.904 44.522 120.209c44.522-31.165 93.496-53.426 151.374-62.33l-44.522-124.661zM84.591 554.852c0 173.635 142.47 316.104 316.104 316.104s316.104-142.47 316.104-316.104c0-173.635-142.47-316.104-316.104-316.104s-316.104 142.47-316.104 316.104zM592.139 140.8c-13.357 4.452-26.713-4.452-35.617-13.357l-40.070-62.33-44.522 120.209c53.426 8.904 106.852 31.165 151.374 62.33l44.522-120.209-75.687 13.357z" />
<glyph unicode="&#xe917;" glyph-name="Breadcrumb" horiz-adv-x="1733" d="M1536 904.862h-1339.077c-110.277 0-173.292-78.769-173.292-204.8v-527.754c0-126.031 70.892-204.8 173.292-204.8h1339.077c110.277 0 173.292 78.769 173.292 212.677v519.877c7.877 126.031-63.015 204.8-173.292 204.8zM1591.138 180.185c0-94.523-39.385-94.523-55.138-94.523h-1339.077c-15.754 0-55.138 0-55.138 86.646v527.754c0 86.646 47.262 86.646 55.138 86.646h1339.077c15.754 0 55.138 0 55.138-86.646v-519.877zM866.462 692.185c-31.508 0-63.015-23.631-63.015-63.015v-370.215c0-31.508 23.631-63.015 63.015-63.015s63.015 23.631 63.015 63.015v370.215c0 31.508-31.508 63.015-63.015 63.015zM622.277 495.262h-236.308c-31.508 0-63.015-23.631-63.015-63.015s23.631-63.015 63.015-63.015h236.308c31.508 0 63.015 23.631 63.015 63.015s-31.508 63.015-63.015 63.015zM1346.954 495.262h-236.308c-31.508 0-63.015-23.631-63.015-63.015s23.631-63.015 63.015-63.015h236.308c31.508 0 63.015 23.631 63.015 63.015s-31.508 63.015-63.015 63.015z" />
<glyph unicode="&#xe918;" glyph-name="cart_table" horiz-adv-x="973" d="M819.2 919.040h-665.6c-76.8 0-143.36-61.44-143.36-138.24v-665.6c0-76.8 61.44-143.36 143.36-143.36h665.6c76.8 0 143.36 61.44 143.36 143.36v665.6c0 76.8-66.56 138.24-143.36 138.24zM153.6 847.36h665.6c35.84 0 61.44-30.72 61.44-61.44v-133.12h-788.48v128c0 35.84 25.6 66.56 61.44 66.56zM92.16 115.2v455.68h358.4v-522.24h-296.96c-35.84 0-61.44 30.72-61.44 66.56zM819.2 48.64h-296.96v522.24h358.4v-455.68c0-35.84-25.6-66.56-61.44-66.56z" />
<glyph unicode="&#xe919;" glyph-name="cart_total" horiz-adv-x="975" d="M258.438 340.724h472.99c14.629 0 24.381 9.752 34.133 19.505l195.048 390.095c4.876 9.752 4.876 24.381 0 34.133s-19.505 19.505-29.257 19.505h-73.143c-19.505 0-39.010-14.629-39.010-39.010s14.629-39.010 39.010-39.010h14.629l-156.038-316.952h-443.733l-63.39 321.829h34.133c19.505 0 39.010 14.629 39.010 39.010s-19.505 34.133-39.010 34.133h-48.762l-14.629 63.39c0 19.505-14.629 34.133-34.133 34.133h-97.524c-19.505 0-34.133-19.505-34.133-39.010s14.629-34.133 34.133-34.133h68.267l14.629-68.267c0 0 0 0 0-4.876l73.143-365.714-97.524-97.524c-9.752-9.752-19.505-29.257-24.381-43.886s0-34.133 4.876-48.762c4.876-14.629 19.505-29.257 29.257-39.010 4.876 0 4.876-4.876 9.752-4.876-4.876-4.876-4.876-9.752-9.752-19.505-9.752-24.381-14.629-53.638-9.752-78.019s19.505-48.762 39.010-68.267c19.505-19.505 43.886-29.257 68.267-39.010 9.752 0 19.505-4.876 24.381-4.876 19.505 0 34.133 4.876 48.762 9.752 24.381 9.752 43.886 29.257 58.514 48.762 14.629 24.381 24.381 48.762 24.381 73.143 0 19.505-4.876 43.886-14.629 58.514h248.686c0-4.876-4.876-4.876-4.876-9.752-9.752-24.381-14.629-53.638-9.752-78.019s19.505-48.762 39.010-68.267c19.505-19.505 43.886-29.257 68.267-39.010 24.381-4.876 53.638-4.876 78.019 9.752 24.381 9.752 43.886 29.257 58.514 48.762 14.629 24.381 24.381 48.762 24.381 73.143 0 34.133-14.629 68.267-39.010 92.648s-58.514 39.010-92.648 39.010h-560.762c0 0-4.876 0-4.876 0s-4.876 4.876-4.876 4.876c0 0 0 4.876 0 4.876s0 4.876 4.876 4.876l97.524 121.905zM672.914 106.667c4.876 9.752 14.629 19.505 24.381 29.257 9.752 4.876 19.505 9.752 34.133 9.752s34.133-4.876 43.886-19.505c9.752-9.752 19.505-29.257 19.505-43.886 0-9.752-4.876-24.381-9.752-34.133s-14.629-19.505-29.257-24.381c-9.752-4.876-24.381-4.876-34.133-4.876s-24.381 9.752-29.257 14.629c-9.752 9.752-14.629 19.505-14.629 29.257-9.752 19.505-4.876 34.133-4.876 43.886zM185.295 106.667c4.876 9.752 14.629 19.505 24.381 29.257 9.752 4.876 19.505 9.752 34.133 9.752s34.133-4.876 43.886-19.505c9.752-9.752 19.505-24.381 19.505-43.886 0-9.752-4.876-24.381-9.752-34.133s-14.629-19.505-29.257-24.381c-9.752-4.876-24.381-4.876-34.133-4.876s-24.381 9.752-29.257 14.629c-9.752 9.752-14.629 19.505-14.629 29.257-9.752 19.505-4.876 34.133-4.876 43.886zM351.086 730.819l63.39-48.762-24.381-73.143c0-9.752 0-24.381 0-34.133 4.876-9.752 9.752-19.505 19.505-29.257 9.752-4.876 19.505-9.752 34.133-9.752 9.752 0 24.381 4.876 34.133 9.752l63.39 48.762 63.39-48.762c9.752-4.876 19.505-9.752 34.133-9.752 9.752 0 24.381 4.876 34.133 9.752s14.629 14.629 19.505 29.257c4.876 9.752 4.876 24.381 0 34.133l-24.381 78.019 63.39 48.762c9.752 4.876 14.629 14.629 19.505 29.257 4.876 9.752 4.876 24.381 0 34.133 0 4.876-9.752 14.629-19.505 24.381-9.752 4.876-19.505 9.752-34.133 9.752h-78.019l-24.381 78.019c-4.876 9.752-9.752 19.505-19.505 29.257-19.505 14.629-43.886 14.629-63.39 0-9.752-4.876-14.629-14.629-19.505-19.505 0 0 0-4.876-4.876-4.876l-24.381-82.895h-78.019c-9.752 0-24.381-4.876-34.133-9.752-9.752-9.752-14.629-19.505-19.505-29.257s-4.876-24.381 0-34.133c4.876-9.752 9.752-19.505 19.505-29.257zM477.867 760.076c9.752 0 24.381 4.876 34.133 9.752s14.629 14.629 19.505 29.257l9.752 39.010 14.629-39.010c4.876-9.752 9.752-19.505 19.505-29.257 9.752-4.876 19.505-9.752 34.133-9.752h39.010l-29.257-24.381c-9.752-4.876-14.629-14.629-19.505-29.257-4.876-9.752-4.876-24.381 0-34.133l9.752-39.010-29.257 24.381c-9.752 4.876-19.505 9.752-34.133 9.752-9.752 0-24.381-4.876-34.133-9.752l-34.133-19.505 9.752 39.010c4.876 9.752 4.876 24.381 0 34.133 0 9.752-9.752 19.505-19.505 24.381l-29.257 24.381h39.010z" />
<glyph unicode="&#xe91a;" glyph-name="Category" horiz-adv-x="975" d="M307.2 935.619h-180.419c-68.267 0-126.781-58.514-126.781-126.781v-180.419c0-68.267 53.638-126.781 126.781-126.781h180.419c68.267 0 126.781 53.638 126.781 126.781v180.419c0 68.267-58.514 126.781-126.781 126.781zM360.838 628.419c0-29.257-29.257-53.638-53.638-53.638h-180.419c-29.257 0-53.638 24.381-53.638 53.638v180.419c0 34.133 24.381 53.638 53.638 53.638h180.419c29.257 0 53.638-29.257 53.638-53.638v-180.419zM848.457 935.619h-180.419c-68.267 0-126.781-53.638-126.781-126.781v-180.419c0-68.267 53.638-126.781 126.781-126.781h180.419c68.267 0 126.781 53.638 126.781 126.781v180.419c0 68.267-58.514 126.781-126.781 126.781zM902.095 628.419c0-29.257-29.257-53.638-53.638-53.638h-180.419c-29.257 0-53.638 29.257-53.638 53.638v180.419c0 29.257 29.257 53.638 53.638 53.638h180.419c29.257 0 53.638-29.257 53.638-53.638v-180.419zM307.2 394.362h-180.419c-68.267 0-126.781-53.638-126.781-126.781v-180.419c0-68.267 53.638-126.781 126.781-126.781h180.419c68.267 0 126.781 53.638 126.781 126.781v180.419c0 68.267-58.514 126.781-126.781 126.781zM360.838 87.162c0-29.257-29.257-53.638-53.638-53.638h-180.419c-29.257 0-53.638 29.257-53.638 53.638v180.419c0 29.257 29.257 53.638 53.638 53.638h180.419c29.257 0 53.638-29.257 53.638-53.638v-180.419zM848.457 394.362h-180.419c-68.267 0-126.781-53.638-126.781-126.781v-180.419c0-68.267 53.638-126.781 126.781-126.781h180.419c68.267 0 126.781 53.638 126.781 126.781v180.419c0 68.267-58.514 126.781-126.781 126.781zM902.095 87.162c0-29.257-29.257-53.638-53.638-53.638h-180.419c-29.257 0-53.638 29.257-53.638 53.638v180.419c0 29.257 29.257 53.638 53.638 53.638h180.419c29.257 0 53.638-29.257 53.638-53.638v-180.419z" />
<glyph unicode="&#xe91b;" glyph-name="chank_you_massage" horiz-adv-x="1078" d="M792.253 933.053h-463.495c-161.684 0-269.474-113.179-269.474-269.474v-274.863c0-16.168 0-32.337 5.389-48.505-32.337-37.726-48.505-86.232-48.505-140.126 0-43.116 10.779-80.842 32.337-113.179 37.726-70.063 113.179-107.789 194.021-107.789 53.895 0 107.789 21.558 145.516 53.895 16.168 16.168 32.337 32.337 43.116 53.895 5.389 10.779 10.779 21.558 16.168 32.337h53.895l194.021-129.347c16.168-10.779 32.337-16.168 48.505-16.168s26.947 5.389 43.116 10.779c26.947 16.168 48.505 43.116 48.505 75.453v59.284c59.284 5.389 113.179 32.337 156.295 75.453 48.505 48.505 75.453 118.568 75.453 194.021v269.474c0 161.684-113.179 274.863-274.863 274.863zM382.653 194.695c0-26.947-5.389-53.895-21.558-75.453-5.389-10.779-16.168-21.558-26.947-32.337-26.947-21.558-59.284-37.726-97.011-37.726-48.505 0-97.011 26.947-123.958 70.063-16.168 21.558-21.558 48.505-21.558 75.453 0 43.116 16.168 80.842 48.505 107.789 5.389 5.389 5.389 5.389 10.779 10.779 5.389 0 5.389 0 10.779 0 48.505 32.337 113.179 26.947 161.684-5.389 0 0 0 0 5.389-5.389s10.779-10.779 16.168-16.168l5.389-5.389c5.389-5.389 5.389-10.779 10.779-16.168 0-5.389 5.389-5.389 5.389-10.779s5.389-10.779 5.389-16.168 5.389-10.779 5.389-16.168 0-5.389 5.389-10.779c0 0 0-5.389 0-16.168v0zM980.884 383.326c0-59.284-16.168-107.789-53.895-140.126-32.337-32.337-80.842-53.895-140.126-53.895-21.558 0-43.116-16.168-43.116-43.116v-97.011c0 0 0-5.389-5.389-5.389s-5.389 0-5.389 0l-194.021 140.126c-5.389 5.389-16.168 5.389-21.558 5.389h-53.895c0 16.168 0 26.947-5.389 43.116 0 5.389-5.389 10.779-5.389 16.168s-5.389 16.168-5.389 21.558c0 5.389-5.389 10.779-10.779 16.168 0 16.168-5.389 21.558-10.779 26.947s-10.779 10.779-16.168 16.168c-5.389 5.389-5.389 5.389-10.779 10.779 0 0 0 0-5.389 5.389s-16.168 10.779-21.558 21.558c-5.389 5.389-10.779 10.779-16.168 10.779-5.389 5.389-16.168 10.779-21.558 10.779-5.389 5.389-10.779 5.389-16.168 10.779-10.779 5.389-16.168 5.389-26.947 10.779-5.389 0-10.779 5.389-16.168 5.389s-21.558 5.389-37.726 5.389c-16.168 0-32.337 0-43.116-5.389-5.389 0-10.779-5.389-16.168-5.389-10.779 0-16.168-5.389-26.947-10.779-5.389 0-10.779 0-10.779-5.389v264.084c0 118.568 75.453 194.021 188.632 194.021h463.495c113.179 0 188.632-75.453 188.632-188.632v-280.253zM285.642 270.147l-70.063-64.674-16.168 16.168c-16.168 16.168-43.116 16.168-59.284 0s-16.168-43.116 0-59.284l43.116-43.116c5.389-5.389 16.168-10.779 26.947-10.779s21.558 5.389 26.947 10.779l97.011 91.621c16.168 16.168 16.168 43.116 0 59.284-10.779 10.779-32.337 16.168-48.505 0zM722.189 555.789h-323.368c-21.558 0-37.726-16.168-37.726-37.726s16.168-43.116 37.726-43.116h323.368c21.558 0 43.116 16.168 43.116 43.116s-21.558 37.726-43.116 37.726z" />
<glyph unicode="&#xe91c;" glyph-name="Checkout-Order-Pay" horiz-adv-x="975" d="M258.438 360.229h472.99c14.629 0 24.381 9.752 34.133 19.505l195.048 390.095c4.876 9.752 4.876 24.381 0 34.133s-19.505 24.381-34.133 24.381h-121.905c-19.505 0-34.133-14.629-34.133-39.010s14.629-39.010 34.133-39.010h58.514l-160.914-316.952h-429.105l-63.39 321.829h82.895c19.505 0 39.010 14.629 39.010 39.010s-14.629 34.133-39.010 34.133h-97.524l-14.629 68.267c0 14.629-14.629 29.257-34.133 29.257h-97.524c-19.505 0-39.010-14.629-39.010-39.010s19.505-34.133 39.010-34.133h68.267l14.629-68.267c0 0 0 0 0-4.876l73.143-365.714-97.524-97.524c-9.752-9.752-19.505-29.257-24.381-43.886s0-34.133 4.876-48.762c4.876-14.629 19.505-29.257 29.257-39.010 4.876 0 4.876-4.876 9.752-4.876-4.876-4.876-4.876-9.752-9.752-19.505-4.876-29.257-9.752-53.638-4.876-78.019s19.505-48.762 39.010-68.267c19.505-19.505 43.886-29.257 68.267-39.010 9.752 0 19.505-4.876 24.381-4.876 19.505 0 34.133 4.876 53.638 9.752 24.381 9.752 43.886 29.257 58.514 48.762 14.629 24.381 24.381 48.762 24.381 73.143 0 19.505-4.876 43.886-14.629 63.39h248.686c0-4.876-4.876-4.876-4.876-9.752-9.752-24.381-14.629-53.638-9.752-78.019s19.505-48.762 39.010-68.267c19.505-19.505 43.886-29.257 68.267-39.010 24.381-4.876 53.638-4.876 78.019 9.752 24.381 9.752 43.886 29.257 58.514 48.762 14.629 24.381 24.381 48.762 24.381 73.143 0 34.133-14.629 68.267-39.010 92.648s-58.514 39.010-92.648 39.010h-570.514c0 0-4.876 0-4.876 0s-4.876 4.876-4.876 4.876c0 0 0 4.876 0 4.876s0 4.876 4.876 4.876l97.524 112.152zM672.914 131.048c4.876 9.752 14.629 19.505 24.381 29.257 9.752 4.876 19.505 9.752 34.133 9.752s29.257-4.876 43.886-19.505c9.752-9.752 19.505-29.257 19.505-43.886 0-9.752-4.876-24.381-9.752-34.133s-14.629-19.505-29.257-24.381c-9.752-4.876-24.381-4.876-34.133-4.876s-24.381 9.752-29.257 14.629-14.629 19.505-14.629 29.257c-9.752 19.505-4.876 29.257-4.876 43.886zM185.295 131.048c4.876 9.752 14.629 19.505 24.381 29.257 9.752 4.876 19.505 9.752 34.133 9.752s29.257-4.876 43.886-19.505c9.752-9.752 19.505-29.257 19.505-43.886 0-9.752-4.876-24.381-9.752-34.133s-14.629-19.505-29.257-24.381c-9.752-4.876-24.381-4.876-34.133-4.876s-24.381 9.752-29.257 14.629c-9.752 9.752-14.629 19.505-14.629 29.257-9.752 19.505-4.876 29.257-4.876 43.886zM502.248 672.305v-73.143c0 0 0 0 0 0-14.629 4.876-24.381 9.752-34.133 19.505-14.629 14.629-34.133 14.629-48.762 0s-14.629-39.010 0-53.638c14.629-14.629 34.133-29.257 58.514-39.010 4.876 0 14.629-4.876 24.381-4.876v-4.876c0-19.505 14.629-39.010 39.010-39.010s39.010 14.629 39.010 39.010v4.876c63.39 9.752 112.152 53.638 112.152 107.276s-48.762 92.648-112.152 107.276v73.143c0 0 0 0 0 0 9.752-4.876 24.381-9.752 29.257-19.505 4.876-4.876 14.629-9.752 24.381-9.752s19.505 4.876 24.381 9.752c14.629 14.629 14.629 39.010 0 53.638s-34.133 29.257-58.514 39.010c-9.752 4.876-19.505 4.876-29.257 9.752v-4.876c0 19.505-14.629 39.010-39.010 39.010s-39.010-14.629-39.010-39.010v-4.876c-53.638-9.752-97.524-53.638-97.524-107.276 0-48.762 43.886-92.648 107.276-102.4zM575.39 662.552c24.381-9.752 39.010-19.505 39.010-29.257s-14.629-24.381-39.010-29.257v58.514zM502.248 808.838v-63.39c-19.505 9.752-34.133 19.505-34.133 29.257 0 14.629 14.629 24.381 34.133 34.133z" />
<glyph unicode="&#xe91d;" glyph-name="Checkout-Payment" horiz-adv-x="1280" d="M1088-51.2h-640c-44.8 0-89.6 19.2-121.6 51.2s-57.6 83.2-57.6 128v76.8h-76.8c-44.8 0-89.6 19.2-121.6 51.2s-57.6 83.2-57.6 128v384c0 44.8 19.2 89.6 51.2 121.6 38.4 38.4 83.2 57.6 128 57.6h640c44.8 0 89.6-19.2 121.6-51.2s51.2-76.8 51.2-121.6v-76.8h83.2c44.8 0 89.6-19.2 121.6-51.2s51.2-76.8 51.2-121.6v-384c0-44.8-19.2-89.6-51.2-121.6s-76.8-70.4-121.6-70.4zM371.2 256v-128c0-19.2 6.4-44.8 25.6-57.6s38.4-25.6 57.6-25.6h640c19.2 0 44.8 6.4 57.6 25.6s25.6 38.4 25.6 57.6v384c0 19.2-6.4 38.4-25.6 57.6-12.8 12.8-32 25.6-57.6 25.6h-646.4c-19.2 0-38.4-6.4-57.6-25.6-12.8-19.2-19.2-38.4-19.2-57.6v-256zM192 844.8c-19.2 0-38.4-6.4-57.6-25.6-12.8-12.8-19.2-32-19.2-51.2v-384c0-19.2 6.4-44.8 25.6-57.6s38.4-25.6 57.6-25.6h76.8v211.2c0 44.8 19.2 89.6 51.2 121.6 32 38.4 76.8 57.6 121.6 57.6h460.8v76.8c0 19.2-6.4 38.4-25.6 57.6-12.8 12.8-32 25.6-57.6 25.6h-633.6zM768 140.8c-12.8 0-25.6 0-32 6.4-32 6.4-64 25.6-89.6 51.2s-38.4 57.6-51.2 89.6c-6.4 32 0 64 12.8 102.4s38.4 57.6 64 76.8c64 44.8 160 38.4 217.6-25.6 32-32 51.2-76.8 51.2-121.6 0-32-12.8-70.4-32-96-19.2-32-44.8-51.2-76.8-64-19.2-12.8-38.4-19.2-64-19.2zM768 396.8c-12.8 0-32-6.4-44.8-12.8s-25.6-19.2-32-38.4c-6.4-12.8-6.4-32-6.4-44.8s12.8-32 19.2-38.4c12.8-12.8 25.6-19.2 38.4-19.2s32 0 44.8 6.4c12.8 6.4 25.6 19.2 38.4 32 6.4 12.8 12.8 25.6 12.8 44.8s-6.4 38.4-25.6 57.6c-6.4 6.4-25.6 12.8-44.8 12.8z" />
<glyph unicode="&#xe91e;" glyph-name="checkout_coupon_form" horiz-adv-x="819" d="M665.6-53.76h-512c-35.84 0-71.68 15.36-97.28 40.96s-46.080 66.56-46.080 102.4v716.8c0 35.84 15.36 71.68 40.96 97.28 30.72 30.72 66.56 46.080 102.4 46.080h286.72c25.6 0 46.080-10.24 61.44-25.6l276.48-276.48c15.36-15.36 25.6-40.96 25.6-61.44v-496.64c0-35.84-15.36-71.68-40.96-97.28s-61.44-46.080-97.28-46.080zM153.6 867.84c-15.36 0-30.72-5.12-46.080-20.48-10.24-10.24-15.36-25.6-15.36-40.96v-716.8c0-15.36 5.12-35.84 20.48-46.080s30.72-20.48 46.080-20.48h512c15.36 0 35.84 5.12 46.080 20.48s20.48 30.72 20.48 46.080v491.52c0 5.12 0 5.12-5.12 10.24l-281.6 276.48c0 0-5.12 5.12-10.24 5.12h-286.72zM563.2 151.040c-20.48 0-40.96 15.36-40.96 40.96v307.2c0 20.48 15.36 40.96 40.96 40.96s40.96-15.36 40.96-40.96v-307.2c0-20.48-20.48-40.96-40.96-40.96zM409.6 151.040c-20.48 0-40.96 15.36-40.96 40.96v204.8c0 20.48 15.36 40.96 40.96 40.96s40.96-15.36 40.96-40.96v-204.8c0-20.48-20.48-40.96-40.96-40.96zM256 151.040c-20.48 0-40.96 15.36-40.96 40.96v102.4c0 20.48 15.36 40.96 40.96 40.96s40.96-15.36 40.96-40.96v-102.4c0-20.48-20.48-40.96-40.96-40.96z" />
<glyph unicode="&#xe91f;" glyph-name="checkout_form_additinal" d="M271.36 360.96h496.64c15.36 0 25.6 10.24 35.84 20.48l204.8 409.6c5.12 10.24 5.12 25.6 0 35.84s-20.48 20.48-30.72 20.48h-71.68c-20.48 0-40.96-15.36-40.96-40.96s15.36-40.96 40.96-40.96h5.12l-163.84-332.8h-460.8l-66.56 337.92h250.88c25.6 0 40.96 15.36 40.96 35.84s-15.36 40.96-35.84 40.96h-271.36l-15.36 66.56c0 20.48-15.36 35.84-35.84 35.84h-102.4c-20.48 0-35.84-20.48-35.84-40.96s15.36-35.84 35.84-35.84h71.68l92.16-460.8-102.4-102.4c-10.24-10.24-20.48-30.72-25.6-46.080s0-35.84 5.12-51.2c5.12-15.36 20.48-30.72 30.72-40.96 5.12 0 5.12-5.12 10.24-5.12-5.12-5.12-5.12-10.24-10.24-20.48-10.24-25.6-15.36-56.32-10.24-81.92s20.48-51.2 40.96-71.68c20.48-20.48 46.080-30.72 71.68-40.96 10.24 0 20.48-5.12 25.6-5.12 20.48 0 35.84 5.12 51.2 10.24 25.6 10.24 46.080 30.72 61.44 51.2 15.36 25.6 25.6 51.2 25.6 76.8 0 20.48-5.12 46.080-15.36 66.56h261.12c0-5.12-5.12-5.12-5.12-10.24-10.24-25.6-15.36-56.32-10.24-81.92s20.48-51.2 40.96-71.68c20.48-20.48 46.080-30.72 71.68-40.96 25.6-5.12 56.32-5.12 81.92 10.24 25.6 10.24 46.080 30.72 61.44 51.2 15.36 25.6 25.6 51.2 25.6 76.8 0 35.84-15.36 71.68-40.96 97.28s-61.44 40.96-97.28 40.96h-588.8c0 0-5.12 0-5.12 0s-5.12 5.12-5.12 5.12c0 0 0 5.12 0 5.12s0 5.12 5.12 5.12l102.4 122.88zM706.56 115.2c5.12 10.24 15.36 20.48 25.6 30.72 10.24 5.12 20.48 10.24 35.84 10.24s35.84-5.12 46.080-20.48c10.24-10.24 20.48-30.72 20.48-46.080 0-10.24-5.12-25.6-10.24-35.84s-15.36-20.48-30.72-25.6c-10.24-5.12-25.6-5.12-35.84-5.12s-25.6 10.24-30.72 15.36c-10.24 10.24-15.36 20.48-15.36 30.72-10.24 20.48-5.12 30.72-5.12 46.080zM194.56 115.2c5.12 10.24 15.36 20.48 25.6 30.72 10.24 5.12 20.48 10.24 35.84 10.24s35.84-5.12 46.080-20.48c10.24-10.24 20.48-30.72 20.48-46.080 0-10.24-5.12-25.6-10.24-35.84s-15.36-20.48-30.72-25.6c-10.24-5.12-25.6-5.12-35.84-5.12s-25.6 10.24-30.72 15.36c-10.24 10.24-15.36 20.48-15.36 30.72-10.24 20.48-5.12 35.84-5.12 46.080zM419.84 678.4c-15.36 15.36-40.96 15.36-56.32 0s-15.36-40.96 0-56.32l102.4-102.4c5.12-5.12 15.36-10.24 25.6-10.24s20.48 5.12 25.6 10.24l261.12 261.12c15.36 15.36 15.36 40.96 0 56.32s-40.96 15.36-56.32 0l-225.28-230.4-76.8 71.68z" />
<glyph unicode="&#xe920;" glyph-name="checkout_form_coupon" horiz-adv-x="1365" d="M1317.547 598.187c20.48 6.827 34.133 27.307 34.133 47.787v150.187c0 68.267-54.613 122.88-122.88 122.88h-1092.267c-68.267 0-122.88-54.613-122.88-122.88v-157.013c0-20.48 13.653-40.96 34.133-47.787 6.827 0 109.227-47.787 109.227-150.187s-102.4-136.533-109.227-143.36c-20.48-6.827-34.133-27.307-34.133-47.787v-157.013c0-68.267 54.613-122.88 122.88-122.88h1092.267c68.267 0 122.88 54.613 122.88 122.88v157.013c0 20.48-13.653 40.96-34.133 47.787-6.827 0-109.227 47.787-109.227 150.187s102.4 143.36 109.227 150.187zM1242.453 673.28c-47.787-27.307-136.533-102.4-136.533-225.28 0-129.707 88.747-197.973 136.533-225.28v-122.88c0-6.827-6.827-13.653-13.653-13.653h-1092.267c-6.827 0-13.653 6.827-13.653 13.653v122.88c47.787 27.307 136.533 102.4 136.533 225.28 0 129.707-88.747 197.973-136.533 225.28v122.88c0 6.827 6.827 13.653 13.653 13.653h1092.267c6.827 0 13.653-6.827 13.653-13.653v-122.88zM873.813 625.493l-238.933-191.147-81.92 95.573c-13.653 20.48-47.787 27.307-68.267 6.827s-27.307-47.787-6.827-68.267l109.227-136.533c13.653-13.653 27.307-20.48 40.96-20.48s20.48 6.827 34.133 13.653l273.067 225.28c20.48 20.48 27.307 47.787 6.827 75.093-13.653 13.653-47.787 20.48-68.267 0z" />
<glyph unicode="&#xe921;" glyph-name="checkout_form_login" horiz-adv-x="922" d="M51.2 796.16c-20.48 0-40.96-20.48-40.96-40.96v-691.2c0-20.48 15.36-40.96 40.96-40.96s40.96 15.36 40.96 40.96v691.2c0 20.48-20.48 40.96-40.96 40.96zM870.4 232.96h-471.040l138.24 138.24c15.36 15.36 15.36 40.96 0 56.32s-40.96 15.36-56.32 0l-204.8-204.8c-5.12-5.12-5.12-10.24-10.24-10.24 0-5.12-5.12-10.24-5.12-15.36s0-10.24 5.12-15.36c0-5.12 5.12-10.24 10.24-10.24l204.8-204.8c5.12-5.12 15.36-10.24 25.6-10.24s20.48 5.12 25.6 10.24c15.36 15.36 15.36 40.96 0 56.32l-138.24 138.24h476.16c20.48 0 40.96 15.36 40.96 40.96s-20.48 30.72-40.96 30.72zM307.2 663.040h471.040l-138.24-138.24c-15.36-15.36-15.36-40.96 0-56.32 5.12-5.12 15.36-10.24 25.6-10.24s20.48 5.12 25.6 10.24l204.8 204.8c5.12 5.12 5.12 10.24 10.24 10.24 0 5.12 5.12 10.24 5.12 15.36s0 10.24-5.12 15.36c0 5.12-5.12 10.24-10.24 10.24l-204.8 204.8c-15.36 15.36-40.96 15.36-56.32 0s-15.36-40.96 0-56.32l138.24-138.24h-465.92c-20.48 10.24-40.96-10.24-40.96-30.72s20.48-40.96 40.96-40.96z" />
<glyph unicode="&#xe922;" glyph-name="checkout_order_pay" horiz-adv-x="819" d="M716.8 949.76h-614.4c-51.2 0-97.28-40.96-97.28-92.16v-808.96c0-51.2 46.080-92.16 97.28-92.16h614.4c51.2 0 97.28 40.96 97.28 92.16v803.84c0 51.2-46.080 97.28-97.28 97.28zM737.28 43.52c0-10.24-10.24-15.36-20.48-15.36h-614.4c-10.24 0-20.48 10.24-20.48 15.36v808.96c0 10.24 10.24 15.36 20.48 15.36h614.4c10.24 0 20.48-10.24 20.48-15.36v-808.96zM358.4 545.28v-66.56c-10.24 5.12-20.48 10.24-30.72 20.48-10.24 15.36-35.84 15.36-51.2 0s-15.36-40.96 0-56.32c15.36-15.36 35.84-30.72 56.32-35.84 10.24-5.12 20.48-5.12 25.6-10.24v0c0-20.48 15.36-40.96 40.96-40.96s40.96 15.36 40.96 40.96v0c61.44 10.24 107.52 56.32 107.52 107.52s-46.080 97.28-107.52 107.52v71.68c10.24-5.12 20.48-10.24 30.72-20.48 5.12-10.24 15.36-10.24 20.48-10.24 10.24 0 20.48 0 30.72 10.24 15.36 15.36 15.36 40.96 0 56.32-20.48 15.36-35.84 25.6-56.32 35.84-10.24 0-20.48 5.12-30.72 5.12v0c0 20.48-15.36 40.96-40.96 40.96s-35.84-15.36-35.84-35.84v0c-61.44-15.36-107.52-61.44-107.52-112.64s46.080-92.16 107.52-107.52zM435.2 535.040c20.48-5.12 30.72-20.48 30.72-25.6 0-10.24-15.36-20.48-30.72-25.6v51.2zM358.4 683.52v-56.32c-20.48 5.12-30.72 15.36-30.72 25.6s10.24 20.48 30.72 30.72zM578.56 243.2h-363.52c-20.48 0-40.96-15.36-40.96-40.96s15.36-40.96 40.96-40.96h363.52c20.48 0 40.96 15.36 40.96 40.96s-20.48 40.96-40.96 40.96z" />
<glyph unicode="&#xe923;" glyph-name="checkout_review_order" horiz-adv-x="1280" d="M1228.8 563.2l-217.6 217.6c-19.2 19.2-51.2 32-76.8 32h-166.4c-6.4 0-12.8 0-12.8 0v19.2c0 32-12.8 57.6-32 76.8s-51.2 32-76.8 32c0 0 0 0-6.4 0 0 0 0 0-6.4 0h-115.2c-25.6 0-44.8-19.2-44.8-44.8s19.2-51.2 51.2-51.2h115.2c0 0 0 0 6.4 0 0 0 0 0 6.4 0s6.4 0 12.8-6.4c0 0 6.4-6.4 6.4-12.8v-640c0-6.4 0-6.4-6.4-12.8 0 0-6.4-6.4-12.8-6.4h-166.4c-6.4 25.6-25.6 57.6-44.8 76.8-64 64-185.6 64-249.6 0-19.2-19.2-38.4-44.8-44.8-76.8h-19.2c-6.4 0-6.4 0-12.8 6.4 0 0-6.4 6.4-6.4 12.8v115.2c0 25.6-19.2 51.2-51.2 51.2s-51.2-19.2-51.2-51.2v-108.8c0-32 12.8-57.6 32-76.8s51.2-32 76.8-32h25.6c6.4-25.6 25.6-57.6 44.8-76.8 64-64 179.2-64 249.6 0 19.2 19.2 38.4 44.8 44.8 76.8h160c25.6 0 44.8 6.4 64 19.2 19.2-12.8 38.4-19.2 64-19.2h25.6c6.4-25.6 25.6-57.6 44.8-76.8 32-32 76.8-51.2 121.6-51.2s89.6 19.2 121.6 51.2c19.2 19.2 38.4 44.8 44.8 76.8h25.6c32 0 57.6 12.8 76.8 32s32 51.2 32 76.8v294.4c0 32-6.4 57.6-32 76.8zM377.6 70.4c-32-32-83.2-32-115.2 0-12.8 12.8-25.6 38.4-25.6 57.6s6.4 38.4 25.6 57.6c32 32 83.2 32 115.2 0 12.8-12.8 25.6-38.4 25.6-57.6s-12.8-38.4-25.6-57.6zM1017.6 70.4c-32-32-83.2-32-115.2 0-12.8 12.8-25.6 38.4-25.6 57.6s6.4 38.4 25.6 57.6c32 32 83.2 32 115.2 0 12.8-12.8 25.6-38.4 25.6-57.6s-12.8-38.4-25.6-57.6zM1171.2 192c0-6.4 0-6.4-6.4-12.8 0 0-6.4-6.4-12.8-6.4h-25.6c-6.4 25.6-25.6 57.6-44.8 76.8-64 64-185.6 64-249.6 0-19.2-19.2-38.4-44.8-44.8-76.8h-19.2c-6.4 0-6.4 0-12.8 6.4s-6.4 6.4-6.4 12.8v512c0 6.4 0 6.4 6.4 12.8s6.4 6.4 12.8 6.4h166.4c6.4 0 6.4 0 12.8-6.4l217.6-217.6c0 0 6.4-6.4 6.4-12.8v-294.4zM44.8 659.2l83.2-64-32-96c-6.4-12.8-6.4-32 0-44.8s19.2-25.6 32-38.4c12.8-6.4 25.6-12.8 44.8-12.8 12.8 0 32 6.4 44.8 12.8l83.2 64 83.2-64c12.8-6.4 25.6-12.8 44.8-12.8 12.8 0 32 6.4 44.8 12.8s19.2 19.2 25.6 38.4c6.4 12.8 6.4 32 0 44.8l-38.4 102.4 83.2 64c12.8 6.4 19.2 19.2 25.6 38.4 6.4 6.4 6.4 25.6 0 38.4 0 12.8-12.8 25.6-25.6 38.4-12.8 6.4-25.6 12.8-38.4 12.8h-108.8l-32 102.4c-6.4 12.8-12.8 25.6-25.6 32-25.6 19.2-57.6 19.2-83.2 0-12.8-6.4-19.2-12.8-25.6-25.6 0 0 0-6.4-6.4-6.4l-32-102.4h-102.4c-12.8 0-32-6.4-44.8-12.8-12.8-12.8-19.2-25.6-25.6-38.4s-6.4-32 0-44.8 12.8-25.6 25.6-38.4zM211.2 697.6c12.8 0 32 6.4 44.8 12.8s19.2 19.2 25.6 38.4l12.8 51.2 12.8-51.2c6.4-12.8 12.8-25.6 25.6-38.4 19.2-6.4 32-12.8 51.2-12.8h51.2l-44.8-32c-12.8-6.4-19.2-19.2-25.6-32s-6.4-32 0-44.8l12.8-51.2-38.4 32c-12.8 6.4-25.6 12.8-44.8 12.8s-32-6.4-38.4-12.8l-44.8-32 12.8 51.2c6.4 12.8 6.4 32 0 44.8 0 12.8-12.8 25.6-25.6 32l-38.4 32h51.2z" />
<glyph unicode="&#xe924;" glyph-name="checkout-form-shipping" horiz-adv-x="1280" d="M960-51.2c-44.8 0-89.6 19.2-121.6 51.2-19.2 19.2-38.4 44.8-44.8 76.8h-25.6c-25.6 0-44.8 6.4-64 19.2-19.2-12.8-38.4-19.2-64-19.2h-153.6c-6.4-25.6-25.6-57.6-44.8-76.8-64-64-179.2-64-249.6 0-19.2 19.2-38.4 44.8-44.8 76.8h-19.2c-32 0-57.6 12.8-76.8 32s-32 51.2-32 76.8v646.4c0 32 12.8 57.6 32 76.8 19.2 25.6 44.8 38.4 76.8 38.4h512c32 0 57.6-12.8 76.8-32s32-51.2 32-76.8v-19.2c6.4 0 12.8 0 12.8 0h166.4c32 0 57.6-12.8 76.8-32l217.6-217.6c19.2-19.2 32-51.2 32-76.8v-300.8c0-32-12.8-57.6-32-76.8s-51.2-32-76.8-32h-25.6c-6.4-25.6-25.6-57.6-44.8-76.8-25.6-38.4-70.4-57.6-115.2-57.6zM883.2 128c0-19.2 6.4-44.8 25.6-57.6 32-32 83.2-32 115.2 0 12.8 12.8 25.6 38.4 25.6 57.6s-6.4 44.8-25.6 57.6c-32 32-83.2 32-115.2 0-19.2-12.8-25.6-38.4-25.6-57.6zM243.2 128c0-19.2 6.4-38.4 25.6-57.6 32-32 83.2-32 115.2 0 12.8 12.8 25.6 38.4 25.6 57.6s-6.4 44.8-25.6 57.6c-32 32-83.2 32-115.2 0-19.2-19.2-25.6-38.4-25.6-57.6zM1126.4 179.2h25.6c6.4 0 6.4 0 12.8 6.4s6.4 6.4 6.4 12.8v288c0 6.4 0 6.4-6.4 12.8l-217.6 217.6c0 0-6.4 6.4-12.8 6.4h-166.4c-6.4 0-6.4 0-12.8-6.4 0 0-6.4-6.4-6.4-12.8v-512c0-6.4 0-6.4 6.4-12.8s6.4-6.4 12.8-6.4h25.6c6.4 25.6 25.6 57.6 44.8 76.8 64 64 179.2 64 249.6 0 19.2-19.2 32-44.8 38.4-70.4zM486.4 179.2h153.6c6.4 0 6.4 0 12.8 6.4 0 0 6.4 6.4 6.4 12.8v633.6c0 6.4 0 6.4-6.4 12.8 0 0-6.4 6.4-12.8 6.4h-512c-6.4 0-6.4 0-12.8-6.4 0 0-6.4-6.4-6.4-12.8v-640c0-6.4 0-6.4 6.4-12.8 0 0 6.4-6.4 12.8-6.4h25.6c6.4 25.6 25.6 57.6 44.8 76.8 64 64 179.2 64 249.6 0 19.2-19.2 32-44.8 38.4-70.4z" />
<glyph unicode="&#xe925;" glyph-name="ck_shipping_methods" horiz-adv-x="1280" d="M1228.8 563.2l-217.6 217.6c-19.2 19.2-51.2 32-76.8 32h-166.4c-6.4 0-12.8 0-12.8 0v19.2c0 32-12.8 57.6-32 76.8s-51.2 32-76.8 32c0 0 0 0-6.4 0 0 0 0 0-6.4 0h-403.2c-25.6 6.4-44.8-19.2-44.8-44.8s19.2-51.2 51.2-51.2h403.2c0 0 0 0 6.4 0 0 0 0 0 6.4 0s6.4 0 12.8-6.4c0 0 6.4-6.4 6.4-12.8v-640c0-6.4 0-6.4-6.4-12.8 0 0-6.4-6.4-12.8-6.4h-166.4c-6.4 25.6-25.6 57.6-44.8 76.8-64 64-179.2 64-249.6 0-19.2-19.2-38.4-44.8-44.8-76.8h-19.2c-6.4 0-6.4 0-12.8 6.4 0 0-6.4 6.4-6.4 12.8v115.2c0 25.6-19.2 51.2-51.2 51.2s-51.2-19.2-51.2-51.2v-108.8c0-32 12.8-57.6 32-76.8s51.2-32 76.8-32h25.6c6.4-25.6 25.6-57.6 44.8-76.8 64-64 179.2-64 249.6 0 19.2 19.2 38.4 44.8 44.8 76.8h160c25.6 0 44.8 6.4 64 19.2 19.2-12.8 38.4-19.2 64-19.2h25.6c6.4-25.6 25.6-57.6 44.8-76.8 32-32 76.8-51.2 121.6-51.2s89.6 19.2 121.6 51.2c19.2 19.2 38.4 44.8 44.8 76.8h25.6c32 0 57.6 12.8 76.8 32s32 51.2 32 76.8v294.4c6.4 32-6.4 57.6-32 76.8zM377.6 70.4c-32-32-83.2-32-115.2 0-12.8 12.8-25.6 38.4-25.6 57.6s6.4 44.8 25.6 57.6c32 32 83.2 32 115.2 0 12.8-12.8 25.6-38.4 25.6-57.6s-12.8-44.8-25.6-57.6zM1017.6 70.4c-32-32-83.2-32-115.2 0-12.8 12.8-25.6 38.4-25.6 57.6s6.4 44.8 25.6 57.6c32 32 83.2 32 115.2 0 12.8-12.8 25.6-38.4 25.6-57.6s-12.8-44.8-25.6-57.6zM1164.8 192c0-6.4 0-6.4-6.4-12.8s-6.4-6.4-12.8-6.4h-25.6c-6.4 25.6-25.6 57.6-44.8 76.8-64 64-179.2 64-249.6 0-19.2-19.2-38.4-44.8-44.8-76.8h-12.8c-6.4 0-6.4 0-12.8 6.4s-6.4 6.4-6.4 12.8v512c0 6.4 0 6.4 6.4 12.8 0 0 6.4 6.4 12.8 6.4h166.4c6.4 0 6.4 0 12.8-6.4l217.6-217.6c0 0 6.4-6.4 6.4-12.8v-294.4zM160 441.6c6.4-12.8 19.2-19.2 32-19.2s25.6 6.4 32 12.8l256 256c19.2 19.2 19.2 51.2 0 70.4s-51.2 19.2-70.4 0l-217.6-217.6-96 89.6c-19.2 19.2-51.2 19.2-70.4 0s-19.2-51.2 0-70.4l134.4-121.6z" />
<glyph unicode="&#xe926;" glyph-name="Comparison-Button" d="M45.511 669.867h824.889l-96.711-108.089c-17.067-17.067-17.067-45.511 0-62.578 5.689-5.689 17.067-11.378 28.444-11.378s22.756 5.689 28.444 11.378l176.356 176.356c17.067 17.067 17.067 45.511 0 62.578l-176.356 176.356c-17.067 17.067-45.511 17.067-62.578 0s-17.067-45.511 0-62.578l96.711-96.711h-819.2c-22.756-5.689-39.822-22.756-39.822-51.2s17.067-34.133 39.822-34.133zM978.489 226.133h-824.889l96.711 102.4c17.067 17.067 17.067 45.511 0 62.578s-45.511 17.067-62.578 0l-176.356-170.667c-17.067-17.067-17.067-39.822 0-56.889l147.911-176.356c5.689-11.378 22.756-17.067 34.133-17.067s17.067 5.689 28.444 11.378c17.067 17.067 22.756 39.822 5.689 62.578l-85.333 102.4h836.267c22.756 0 45.511 17.067 45.511 45.511s-22.756 34.133-45.511 34.133z" />
<glyph unicode="&#xe927;" glyph-name="cross_sells" horiz-adv-x="1280" d="M480 352l-57.6-70.4c-57.6-44.8-121.6-64-192-64h-166.4c-25.6 0-51.2-19.2-51.2-51.2s19.2-51.2 51.2-51.2h166.4c89.6 0 185.6 32 256 89.6 0 0 6.4 6.4 6.4 6.4l64 76.8c19.2 25.6 12.8 57.6-6.4 76.8-19.2 12.8-51.2 12.8-70.4-12.8zM736 544c12.8 0 25.6 6.4 38.4 19.2l25.6 32c57.6 64 83.2 83.2 153.6 83.2h147.2l-89.6-89.6c-19.2-19.2-19.2-51.2 0-70.4 12.8-6.4 19.2-6.4 32-6.4s25.6 6.4 32 12.8l172.8 172.8c19.2 19.2 19.2 51.2 0 70.4l-172.8 172.8c-19.2 19.2-51.2 19.2-70.4 0s-19.2-51.2 0-70.4l89.6-89.6h-147.2c-108.8 0-153.6-44.8-224-121.6l-25.6-32c-19.2-19.2-12.8-51.2 6.4-70.4 12.8-6.4 19.2-12.8 32-12.8zM1081.6 371.2c-19.2 19.2-51.2 19.2-70.4 0s-19.2-51.2 0-70.4l89.6-89.6h-115.2c-25.6 0-57.6 6.4-83.2 19.2s-44.8 25.6-64 44.8l-307.2 384c-32 38.4-76.8 64-121.6 83.2-44.8 25.6-96 32-140.8 32h-204.8c-25.6 0-51.2-19.2-51.2-51.2s25.6-44.8 51.2-44.8h204.8c38.4 0 70.4-6.4 108.8-19.2 32-12.8 64-38.4 89.6-57.6l307.2-384c25.6-32 64-51.2 96-70.4 38.4-19.2 76.8-25.6 121.6-25.6h115.2l-89.6-89.6c-19.2-19.2-19.2-51.2 0-70.4 6.4-6.4 19.2-12.8 32-12.8s25.6 6.4 32 12.8l172.8 172.8c19.2 19.2 19.2 51.2 0 70.4l-172.8 166.4z" />
<glyph unicode="&#xe928;" glyph-name="Currency-Switcher" horiz-adv-x="975" d="M487.619-39.619c-19.505 0-34.133 14.629-34.133 34.133 0 24.381 14.629 34.133 34.133 34.133 229.181 0 414.476 185.295 414.476 414.476 0 126.781-58.514 243.81-151.162 321.829l9.752-117.029c0-19.505-14.629-34.133-29.257-34.133-19.505 0-34.133 14.629-34.133 29.257l-19.505 190.171c0 4.876 0 9.752 0 9.752 0 4.876 4.876 9.752 4.876 14.629s0 9.752 4.876 9.752 9.752 4.876 14.629 4.876c0 0 0 0 4.876 0l190.171 19.505c19.505 0 34.133-14.629 34.133-29.257 0-19.505-14.629-34.133-29.257-34.133l-97.524-9.752c102.4-92.648 165.79-224.305 165.79-365.714 4.876-273.067-214.552-492.495-482.743-492.495zM73.143 4.267c-19.505 0-29.257 14.629-29.257 29.257 0 19.505 14.629 34.133 29.257 34.133l97.524 9.752c-102.4 92.648-165.79 224.305-165.79 365.714-4.876 273.067 219.429 492.495 482.743 492.495 19.505 0 34.133-14.629 34.133-34.133 4.876-24.381-14.629-39.010-34.133-39.010-229.181 0-414.476-185.295-414.476-414.476 0-126.781 58.514-243.81 151.162-321.829l-9.752 117.029c0 19.505 14.629 34.133 29.257 34.133s34.133-14.629 34.133-29.257l19.505-190.171c0-4.876 0-9.752 0-9.752v-4.876c0 0 0-4.876-4.876-4.876 4.876 0 4.876-4.876 0-4.876-4.876-4.876-9.752-4.876-14.629-4.876 0 0 0 0-4.876 0l-199.924-24.381zM487.619 106.667c-19.505 0-34.133 14.629-34.133 34.133v78.019h-4.876c-73.143 0-131.657 58.514-131.657 131.657 0 19.505 14.629 34.133 34.133 34.133 24.381 4.876 39.010-9.752 39.010-29.257 0-34.133 29.257-63.39 63.39-63.39h78.019c34.133 0 63.39 29.257 63.39 63.39s-29.257 63.39-63.39 63.39h-78.019c-73.143 0-131.657 58.514-131.657 131.657s58.514 126.781 131.657 126.781h4.876v78.019c0 19.505 14.629 34.133 34.133 34.133 24.381 0 34.133-14.629 34.133-34.133v-82.895h9.752c73.143 0 131.657-58.514 131.657-131.657 0-19.505-14.629-34.133-34.133-34.133-24.381 0-34.133 14.629-34.133 34.133 0 34.133-29.257 63.39-63.39 63.39h-82.895c-34.133 0-63.39-24.381-63.39-63.39 0-34.133 29.257-63.39 63.39-63.39h78.019c73.143 0 131.657-58.514 131.657-131.657s-58.514-131.657-131.657-131.657h-4.876v-82.895c0-9.752-19.505-24.381-39.010-24.381z" />
<glyph unicode="&#xe929;" glyph-name="Deal-Products" horiz-adv-x="801" d="M525.357 403.478l-240.417-227.061c-13.357-13.357-13.357-35.617 0-48.974 4.452-8.904 13.357-8.904 22.261-8.904s17.809 4.452 22.261 8.904l240.417 227.061c13.357 13.357 13.357 35.617 0 48.974-8.904 13.357-31.165 13.357-44.522 0zM351.722 318.887c26.713 0 44.522 17.809 44.522 44.522s-17.809 44.522-44.522 44.522h-4.452c-26.713 0-44.522-17.809-44.522-44.522s26.713-44.522 48.974-44.522zM525.357 234.296c-26.713 0-44.522-17.809-44.522-44.522s22.261-44.522 44.522-44.522 44.522 17.809 44.522 44.522-17.809 44.522-44.522 44.522zM694.539 532.591c-8.904 13.357-17.809 26.713-26.713 40.070-66.783 115.757-75.687 222.609-26.713 316.104 4.452 8.904 4.452 22.261-4.452 35.617-8.904 8.904-17.809 13.357-31.165 13.357-182.539-26.713-267.13-276.035-302.748-378.435 0 0 0 0 0-4.452-26.713 35.617-57.878 102.4-35.617 186.991 4.452 13.357 0 31.165-13.357 35.617-8.904 8.904-26.713 8.904-40.070 0-191.443-151.374-227.061-391.791-173.635-547.617 57.878-169.183 155.826-222.609 262.678-258.226 31.165-8.904 71.235-13.357 106.852-13.357 102.4 0 231.513 35.617 307.2 151.374 129.113 191.443 35.617 338.365-22.261 422.957zM667.826 145.252c-89.043-138.017-267.13-133.565-342.817-111.304-93.496 35.617-169.183 75.687-218.157 218.157-40.070 111.304-22.261 284.939 93.496 414.052 4.452-66.783 31.165-120.209 62.33-160.278s48.974-40.070 57.878-40.070 35.617 17.809 53.426 71.235c26.713 84.591 89.043 258.226 191.443 316.104-26.713-97.948-8.904-200.348 53.426-311.652 8.904-13.357 17.809-31.165 31.165-44.522 44.522-80.139 115.757-195.896 17.809-351.722z" />
<glyph unicode="&#xe92a;" glyph-name="empty_cart_message" d="M271.36 360.96h496.64c15.36 0 25.6 10.24 35.84 20.48l204.8 409.6c5.12 10.24 5.12 25.6 0 35.84s-20.48 20.48-30.72 20.48h-179.2c-20.48 0-40.96-15.36-40.96-40.96s15.36-40.96 40.96-40.96h117.76l-163.84-332.8h-465.92l-66.56 337.92h46.080c25.6 0 40.96 15.36 40.96 35.84s-15.36 40.96-35.84 40.96h-66.56l-15.36 66.56c0 20.48-15.36 35.84-35.84 35.84h-102.4c-20.48 0-35.84-20.48-35.84-40.96s15.36-35.84 35.84-35.84h71.68l92.16-460.8-102.4-102.4c-10.24-10.24-20.48-30.72-25.6-46.080s0-35.84 5.12-51.2c5.12-15.36 20.48-30.72 30.72-40.96 5.12 0 5.12-5.12 10.24-5.12-5.12-5.12-5.12-10.24-10.24-20.48-10.24-25.6-15.36-56.32-10.24-81.92s20.48-51.2 40.96-71.68c20.48-20.48 46.080-30.72 71.68-40.96 10.24 0 20.48-5.12 25.6-5.12 20.48 0 35.84 5.12 51.2 10.24 25.6 10.24 46.080 30.72 61.44 51.2 15.36 25.6 25.6 51.2 25.6 76.8 0 20.48-5.12 46.080-15.36 61.44h261.12c0-5.12-5.12-5.12-5.12-10.24-10.24-25.6-15.36-56.32-10.24-81.92s20.48-51.2 40.96-71.68c20.48-20.48 46.080-30.72 71.68-40.96 25.6-5.12 56.32-5.12 81.92 10.24 25.6 10.24 46.080 30.72 61.44 51.2 15.36 25.6 25.6 51.2 25.6 76.8 0 35.84-15.36 71.68-40.96 97.28s-61.44 40.96-97.28 40.96h-588.8c0 0-5.12 0-5.12 0s-5.12 5.12-5.12 5.12c0 0 0 5.12 0 5.12s0 5.12 5.12 5.12l102.4 128zM706.56 115.2c5.12 10.24 15.36 20.48 25.6 30.72 10.24 5.12 20.48 10.24 35.84 10.24s35.84-5.12 46.080-20.48c10.24-10.24 20.48-30.72 20.48-46.080 0-10.24-5.12-25.6-10.24-35.84s-15.36-20.48-30.72-25.6c-10.24-5.12-25.6-5.12-35.84-5.12s-25.6 10.24-30.72 15.36c-10.24 10.24-15.36 20.48-15.36 30.72-10.24 20.48-5.12 30.72-5.12 46.080zM194.56 115.2c5.12 10.24 15.36 20.48 25.6 30.72 10.24 5.12 20.48 10.24 35.84 10.24s35.84-5.12 46.080-20.48c10.24-10.24 20.48-25.6 20.48-46.080 0-10.24-5.12-25.6-10.24-35.84s-15.36-20.48-30.72-25.6c-10.24-5.12-25.6-5.12-35.84-5.12s-25.6 10.24-30.72 15.36c-10.24 10.24-15.36 20.48-15.36 30.72-10.24 20.48-5.12 35.84-5.12 46.080zM481.28 724.48h10.24v-163.84c0-20.48 15.36-40.96 40.96-40.96h51.2c20.48 0 40.96 15.36 40.96 40.96s-15.36 40.96-40.96 40.96h-10.24v158.72c0 20.48-15.36 40.96-40.96 40.96h-51.2c-20.48 0-40.96-20.48-40.96-40.96s20.48-35.84 40.96-35.84zM532.48 872.96c20.48 0 35.84 15.36 35.84 35.84s-15.36 40.96-35.84 40.96v0c-20.48 0-40.96-20.48-40.96-40.96s20.48-35.84 40.96-35.84z" />
<glyph unicode="&#xe92b;" glyph-name="Filterable-Product-List" horiz-adv-x="1078" d="M210.189 264.758h-107.789c-53.895 0-97.011-43.116-97.011-97.011v-107.789c0-53.895 43.116-97.011 97.011-97.011h107.789c53.895 0 97.011 43.116 97.011 97.011v107.789c0 53.895-43.116 97.011-97.011 97.011zM220.968 59.958c0-5.389-5.389-10.779-10.779-10.779h-107.789c-5.389 0-10.779 5.389-10.779 10.779v107.789c0 5.389 5.389 10.779 10.779 10.779h107.789c5.389 0 10.779-5.389 10.779-10.779v-107.789zM210.189 647.411h-107.789c-59.284 0-102.4-43.116-102.4-97.011v-107.789c0-53.895 43.116-97.011 97.011-97.011h107.789c53.895 0 97.011 43.116 97.011 97.011v107.789c5.389 53.895-37.726 97.011-91.621 97.011zM220.968 442.611c0-5.389-5.389-10.779-10.779-10.779h-107.789c-5.389 0-10.779 5.389-10.779 10.779v107.789c0 5.389 5.389 10.779 10.779 10.779h107.789c5.389 0 10.779-5.389 10.779-10.779v-107.789zM1034.779 539.621h-549.726c-21.558 0-43.116-16.168-43.116-43.116s16.168-43.116 43.116-43.116h549.726c21.558 0 43.116 16.168 43.116 43.116s-21.558 43.116-43.116 43.116zM43.116 787.537h609.011c16.168-37.726 53.895-64.674 102.4-64.674s86.232 26.947 102.4 64.674h172.463c21.558 0 43.116 16.168 43.116 43.116s-21.558 37.726-43.116 37.726h-167.074c-16.168 37.726-53.895 70.063-102.4 70.063s-86.232-26.947-102.4-70.063h-614.4c-21.558 0-43.116-16.168-43.116-43.116s21.558-37.726 43.116-37.726zM813.811 97.684h-328.758c-21.558 0-43.116-16.168-43.116-43.116s16.168-43.116 43.116-43.116h328.758c21.558 0 43.116 16.168 43.116 43.116s-21.558 43.116-43.116 43.116z" />
<glyph unicode="&#xe92c;" glyph-name="Flash-Sale" horiz-adv-x="890" d="M868.174 105.183l-62.33 498.643c-8.904 62.33-62.33 111.304-124.661 111.304h-44.522v31.165c0 106.852-84.591 191.443-191.443 191.443s-191.443-84.591-191.443-191.443v-35.617h-44.522c-62.33 0-115.757-44.522-124.661-111.304l-66.783-498.643c-4.452-35.617 4.452-71.235 31.165-102.4 22.261-26.713 57.878-40.070 93.496-40.070h614.4c35.617 0 66.783 13.357 93.496 40.070s22.261 66.783 17.809 106.852zM320.557 746.296c0 66.783 53.426 129.113 129.113 129.113 71.235 0 129.113-53.426 129.113-129.113v-35.617h-258.226v35.617zM792.487 47.304c-8.904-13.357-26.713-17.809-40.070-17.809h-614.4c-17.809 0-31.165 8.904-40.070 17.809-8.904 13.357-13.357 26.713-13.357 44.522l66.783 503.096c4.452 26.713 26.713 53.426 53.426 53.426h476.383c26.713 0 53.426-22.261 53.426-48.974l66.783-503.096c4.452-22.261 0-35.617-8.904-48.974zM529.809 390.122l-66.783-8.904 48.974 151.374c4.452 8.904 0 22.261-8.904 26.713s-22.261 4.452-26.713-4.452c-8.904-13.357-26.713-35.617-44.522-57.878-146.922-178.087-146.922-182.539-146.922-195.896s8.904-22.261 22.261-22.261h57.878l-40.070-142.47c-4.452-8.904 0-22.261 8.904-26.713 4.452 0 8.904-4.452 8.904-4.452 4.452 0 13.357 4.452 17.809 8.904l191.443 235.965c4.452 8.904 4.452 17.809 0 26.713s-13.357 17.809-22.261 13.357zM396.243 234.296l17.809 57.878c0 8.904 0 13.357-4.452 17.809s-8.904 8.904-17.809 8.904h-44.522c22.261 31.165 53.426 71.235 80.139 106.852l-22.261-66.783c-4.452-8.904 0-13.357 4.452-22.261s13.357-8.904 22.261-8.904l44.522 4.452-80.139-97.948z" />
<glyph unicode="&#xe92d;" glyph-name="Heading" horiz-adv-x="1325" d="M1216.753 375.718h-1108.329c-60.235 0-108.424-48.188-108.424-108.424v-186.729c0-60.235 48.188-108.424 108.424-108.424h1102.306c60.235 0 108.424 48.188 108.424 108.424v186.729c6.024 60.235-42.165 108.424-102.4 108.424zM1228.8 80.565c0-6.024-6.024-12.047-12.047-12.047h-1108.329c-6.024 0-12.047 6.024-12.047 12.047v186.729c0 6.024 6.024 12.047 12.047 12.047h1102.306c6.024 0 12.047-6.024 12.047-12.047v-186.729zM415.624 827.482h487.906c24.094 0 48.188 18.071 48.188 48.188s-24.094 48.188-48.188 48.188h-487.906c-24.094 6.024-48.188-24.094-48.188-48.188s24.094-48.188 48.188-48.188zM108.424 580.518h1102.306c30.118 0 54.212 18.071 54.212 54.212 0 30.118-24.094 48.188-48.188 48.188h-1108.329c-24.094 0-48.188-24.094-48.188-48.188s24.094-54.212 48.188-54.212z" />
<glyph unicode="&#xe92e;" glyph-name="lost-Password" horiz-adv-x="931" d="M642.327 322.327c-13.964 13.964-37.236 13.964-51.2 0l-13.964-13.964-13.964 13.964c-13.964 13.964-37.236 13.964-51.2 0s-13.964-37.236 0-51.2l13.964-13.964-13.964-13.964c-13.964-13.964-13.964-37.236 0-51.2 4.655-4.655 13.964-9.309 23.273-9.309s18.618 4.655 23.273 9.309l13.964 13.964 13.964-13.964c4.655-4.655 13.964-9.309 23.273-9.309s18.618 4.655 23.273 9.309c13.964 13.964 13.964 37.236 0 51.2l-13.964 13.964 13.964 13.964c23.273 13.964 23.273 37.236 9.309 51.2zM409.6 322.327c-13.964 13.964-37.236 13.964-51.2 0l-9.309-13.964-13.964 13.964c-13.964 13.964-37.236 13.964-51.2 0s-13.964-37.236 0-51.2l13.964-13.964-13.964-13.964c-13.964-13.964-13.964-37.236 0-51.2 4.655-4.655 13.964-9.309 23.273-9.309s18.618 4.655 23.273 9.309l13.964 13.964 13.964-13.964c4.655-4.655 13.964-9.309 23.273-9.309s18.618 4.655 23.273 9.309c13.964 13.964 13.964 37.236 0 51.2l-13.964 13.964 13.964 13.964c18.618 13.964 18.618 37.236 4.655 51.2zM814.545 569.018h-83.782v107.055c0 148.945-121.018 269.964-269.964 269.964s-269.964-121.018-269.964-269.964v-107.055h-79.127c-60.509 0-111.709-51.2-111.709-111.709v-395.636c0-60.509 51.2-111.709 111.709-111.709h707.491c60.509 0 111.709 51.2 111.709 111.709v395.636c0 60.509-51.2 111.709-116.364 111.709zM265.309 676.073c0 111.709 88.436 200.145 200.145 200.145s200.145-88.436 200.145-200.145v-107.055h-400.291v107.055zM861.091 61.673c0-23.273-18.618-41.891-41.891-41.891h-707.491c-23.273 0-41.891 18.618-41.891 41.891v395.636c0 23.273 18.618 41.891 41.891 41.891h707.491c23.273 0 41.891-18.618 41.891-41.891v-395.636z" />
<glyph unicode="&#xe92f;" glyph-name="Notice" d="M768 350.255h-521.309c-18.618 0-37.236-13.964-37.236-37.236s13.964-37.236 37.236-37.236h521.309c18.618 0 37.236 13.964 37.236 37.236s-18.618 37.236-37.236 37.236zM889.018 694.691h-116.364c0 0 0 4.655-4.655 4.655l-232.727 232.727c-13.964 13.964-37.236 13.964-51.2 0l-232.727-232.727c0 0-4.655-4.655-4.655-4.655h-111.709c-74.473 0-134.982-60.509-134.982-134.982v-474.764c0-69.818 55.855-134.982 134.982-134.982h758.691c69.818 0 134.982 55.855 134.982 134.982v474.764c-4.655 74.473-65.164 134.982-139.636 134.982zM512 857.6l162.909-162.909h-325.818l162.909 162.909zM949.527 84.945c0-32.582-27.927-55.855-55.855-55.855h-758.691c-32.582 0-55.855 27.927-55.855 55.855v474.764c0 32.582 27.927 55.855 55.855 55.855h758.691c32.582 0 55.855-27.927 55.855-55.855v-474.764z" />
<glyph unicode="&#xe930;" glyph-name="Order-By-Filter" horiz-adv-x="1126" d="M849.92-48.64c-5.12 0-10.24 0-15.36 5.12v0c0 0 0 0 0 0-5.12 0-10.24 5.12-10.24 5.12s0 0 0 0 0 0 0 0 0 0 0 0l-230.4 230.4c-15.36 15.36-15.36 40.96 0 56.32s40.96 15.36 56.32 0l163.84-163.84v593.92c0 20.48 15.36 40.96 40.96 40.96s40.96-15.36 40.96-40.96v-588.8l163.84 163.84c15.36 15.36 40.96 15.36 56.32 0s15.36-40.96 0-56.32l-225.28-230.4c0 0 0 0 0 0v0c0 0 0 0 0 0v0c0 0 0 0 0 0s0 0 0 0 0 0 0 0v0 0 0 0c0 0 0 0 0 0v0c0 0 0 0 0 0v0 0c0 0 0 0 0 0s0 0 0 0v0c-5.12-5.12-5.12-5.12-10.24-5.12v0c0 0 0 0 0 0-20.48-5.12-25.6-10.24-30.72-10.24zM563.2 407.040h-512c-20.48 0-40.96 15.36-40.96 40.96s20.48 40.96 40.96 40.96h512c20.48 0 40.96-15.36 40.96-40.96s-20.48-40.96-40.96-40.96zM563.2 637.44h-512c-20.48 0-40.96 15.36-40.96 40.96s20.48 35.84 40.96 35.84h512c20.48 0 40.96-15.36 40.96-40.96s-20.48-35.84-40.96-35.84zM788.48 867.84h-737.28c-20.48 0-40.96 15.36-40.96 40.96s20.48 35.84 40.96 35.84h737.28c20.48 0 40.96-15.36 40.96-40.96s-15.36-35.84-40.96-35.84z" />
<glyph unicode="&#xe931;" glyph-name="order_details" horiz-adv-x="819" d="M665.6-53.76h-512c-35.84 0-71.68 15.36-97.28 40.96s-46.080 66.56-46.080 102.4v716.8c0 35.84 15.36 71.68 40.96 97.28 30.72 30.72 66.56 46.080 102.4 46.080h286.72c25.6 0 46.080-10.24 61.44-25.6l276.48-276.48c15.36-15.36 25.6-40.96 25.6-61.44v-496.64c0-35.84-15.36-71.68-40.96-97.28s-61.44-46.080-97.28-46.080zM153.6 867.84c-15.36 0-30.72-5.12-46.080-20.48-10.24-10.24-15.36-25.6-15.36-40.96v-716.8c0-15.36 5.12-35.84 20.48-46.080s30.72-20.48 46.080-20.48h512c15.36 0 35.84 5.12 46.080 20.48s20.48 30.72 20.48 46.080v491.52c0 5.12 0 5.12-5.12 10.24l-281.6 276.48c0 0-5.12 5.12-10.24 5.12h-286.72zM563.2 202.24h-307.2c-20.48 0-40.96 15.36-40.96 40.96s15.36 40.96 40.96 40.96h307.2c20.48 0 40.96-15.36 40.96-40.96s-20.48-40.96-40.96-40.96zM563.2 407.040h-307.2c-20.48 0-40.96 15.36-40.96 40.96s20.48 40.96 40.96 40.96h307.2c20.48 0 40.96-15.36 40.96-40.96s-20.48-40.96-40.96-40.96z" />
<glyph unicode="&#xe932;" glyph-name="Product-Categories" d="M870.4-53.76h-716.8c-35.84 0-71.68 15.36-97.28 40.96s-40.96 61.44-40.96 97.28v307.2c0 35.84 15.36 71.68 40.96 97.28 15.36 15.36 35.84 30.72 61.44 35.84v76.8c0 35.84 15.36 71.68 40.96 97.28 15.36 15.36 35.84 30.72 61.44 35.84v71.68c0 35.84 15.36 71.68 40.96 97.28 25.6 30.72 61.44 46.080 97.28 46.080h307.2c35.84 0 71.68-15.36 97.28-40.96s40.96-61.44 40.96-97.28v-71.68c20.48-5.12 46.080-20.48 61.44-35.84 25.6-25.6 40.96-61.44 40.96-97.28v-71.68c20.48-5.12 46.080-20.48 61.44-35.84 25.6-25.6 40.96-61.44 40.96-97.28v-307.2c0-35.84-15.36-71.68-40.96-97.28-25.6-35.84-61.44-51.2-97.28-51.2zM153.6 463.36c-15.36 0-30.72-5.12-46.080-20.48-10.24-10.24-20.48-30.72-20.48-46.080v-307.2c0-15.36 5.12-30.72 20.48-46.080 10.24-10.24 30.72-20.48 46.080-20.48h716.8c15.36 0 35.84 5.12 46.080 20.48 10.24 10.24 20.48 30.72 20.48 46.080v307.2c0 15.36-5.12 35.84-20.48 46.080-10.24 10.24-25.6 20.48-46.080 20.48h-716.8zM194.56 540.16h640v61.44c0 15.36-5.12 35.84-20.48 46.080-10.24 10.24-25.6 20.48-46.080 20.48h-512c-15.36 0-30.72-5.12-46.080-20.48-10.24-10.24-15.36-30.72-15.36-46.080v-61.44zM296.96 744.96h435.2v61.44c0 15.36-5.12 30.72-20.48 46.080-10.24 10.24-25.6 20.48-46.080 20.48h-307.2c-15.36 0-30.72-5.12-46.080-20.48-10.24-10.24-15.36-30.72-15.36-46.080v-61.44z" />
<glyph unicode="&#xe933;" glyph-name="Product-Category-List" horiz-adv-x="970" d="M188.632 237.811h-97.011c-53.895 0-91.621-37.726-91.621-86.232v-97.011c0-48.505 37.726-91.621 91.621-91.621h97.011c48.505 0 91.621 37.726 91.621 91.621v97.011c-5.389 48.505-43.116 86.232-91.621 86.232zM199.411 49.179c0-5.389-5.389-10.779-10.779-10.779h-97.011c-5.389 0-10.779 5.389-10.779 10.779v102.4c0 5.389 5.389 10.779 10.779 10.779h97.011c5.389 0 10.779-5.389 10.779-10.779v-102.4zM188.632 588.126h-97.011c-53.895 0-91.621-43.116-91.621-91.621v-97.011c0-48.505 37.726-91.621 91.621-91.621h97.011c48.505 0 91.621 37.726 91.621 91.621v97.011c-5.389 48.505-43.116 91.621-91.621 91.621zM199.411 399.495c0-5.389-5.389-10.779-10.779-10.779h-97.011c-5.389 0-10.779 5.389-10.779 10.779v97.011c0 5.389 5.389 10.779 10.779 10.779h97.011c5.389 0 10.779-5.389 10.779-10.779v-97.011zM188.632 933.053h-97.011c-53.895 0-91.621-37.726-91.621-86.232v-102.4c0-48.505 37.726-91.621 91.621-91.621h97.011c48.505 0 91.621 37.726 91.621 91.621v102.4c-5.389 48.505-43.116 86.232-91.621 86.232zM199.411 744.421c0-5.389-5.389-10.779-10.779-10.779h-97.011c-5.389 0-10.779 5.389-10.779 10.779v102.4c0 0 5.389 5.389 10.779 5.389h97.011c5.389 0 10.779-5.389 10.779-10.779v-97.011zM436.547 755.2h495.832c21.558 0 37.726 16.168 37.726 37.726 0 26.947-21.558 37.726-37.726 37.726h-495.832c-21.558 0-37.726-16.168-37.726-37.726-5.389-21.558 16.168-37.726 37.726-37.726zM932.379 485.726h-495.832c-21.558 0-43.116-10.779-43.116-37.726s16.168-37.726 37.726-37.726h495.832c21.558 0 37.726 16.168 37.726 37.726s-16.168 37.726-32.337 37.726zM781.474 140.8h-344.926c-21.558 0-37.726-16.168-37.726-37.726 0-26.947 16.168-37.726 37.726-37.726h344.926c21.558 0 37.726 16.168 37.726 37.726s-16.168 37.726-37.726 37.726z" />
<glyph unicode="&#xe934;" glyph-name="Product-Excerpt" d="M586.473-54.691c-4.655 0-13.964 0-18.618 4.655-9.309 4.655-18.618 18.618-18.618 27.927v470.109c0 13.964 9.309 23.273 18.618 32.582l363.055 181.527c9.309 4.655 23.273 4.655 32.582 0s18.618-18.618 18.618-27.927v-465.455c0-13.964-9.309-23.273-18.618-32.582l-363.055-186.182c-4.655 0-9.309-4.655-13.964-4.655zM623.709 424.727v-386.327l293.236 148.945v386.327l-293.236-148.945zM442.182 47.709c-4.655 0-9.309 0-13.964 4.655l-367.709 190.836c-13.964 9.309-23.273 18.618-23.273 32.582v451.491c0 0 0 0 0 0 0 4.655 0 4.655 0 9.309s4.655 9.309 4.655 9.309 4.655 4.655 4.655 4.655 0 0 0 0v0c0 0 0 0 0 0s0 0 0 0 4.655 4.655 4.655 4.655c0 0 4.655 0 4.655 0l390.982 186.182c9.309 4.655 23.273 4.655 32.582 0l353.745-186.182c9.309-4.655 18.618-18.618 18.618-32.582s-9.309-23.273-18.618-32.582l-358.4-176.873v-437.527c0-13.964-4.655-23.273-18.618-27.927-4.655 0-9.309 0-13.964 0zM107.055 294.4l297.891-158.255v381.673l-297.891 153.6v-377.018zM153.6 727.273l288.582-148.945 297.891 148.945-279.273 148.945-307.2-148.945z" />
<glyph unicode="&#xe935;" glyph-name="Product-Filters" horiz-adv-x="1138" d="M216.178 766.578v136.533c0 22.756-17.067 45.511-45.511 45.511s-45.511-22.756-45.511-45.511v-136.533c-68.267-17.067-113.778-79.644-113.778-147.911s45.511-130.844 113.778-147.911v-477.867c0-22.756 17.067-45.511 45.511-45.511s45.511 17.067 45.511 45.511v477.867c68.267 17.067 113.778 79.644 113.778 147.911s-51.2 130.844-113.778 147.911zM170.667 550.4c-39.822 0-68.267 28.444-68.267 68.267s28.444 68.267 68.267 68.267 68.267-28.444 68.267-68.267-28.444-68.267-68.267-68.267zM1012.622 766.578v136.533c0 22.756-17.067 45.511-45.511 45.511s-45.511-22.756-45.511-45.511v-136.533c-68.267-17.067-113.778-79.644-113.778-147.911s45.511-130.844 113.778-147.911v-477.867c0-22.756 17.067-45.511 45.511-45.511s45.511 17.067 45.511 45.511v477.867c68.267 17.067 113.778 79.644 113.778 147.911s-51.2 130.844-113.778 147.911zM967.111 550.4c-39.822 0-68.267 34.133-68.267 68.267s34.133 68.267 68.267 68.267 68.267-34.133 68.267-68.267-28.444-68.267-68.267-68.267zM614.4 368.356v534.756c0 22.756-17.067 45.511-45.511 45.511s-45.511-22.756-45.511-45.511v-534.756c-68.267-17.067-113.778-79.644-113.778-147.911s45.511-130.844 113.778-147.911v-79.644c0-22.756 17.067-45.511 45.511-45.511s45.511 17.067 45.511 45.511v79.644c68.267 17.067 113.778 79.644 113.778 147.911s-51.2 130.844-113.778 147.911zM568.889 152.178c-39.822 0-68.267 34.133-68.267 68.267s34.133 68.267 68.267 68.267 68.267-34.133 68.267-68.267-28.444-68.267-68.267-68.267z" />
<glyph unicode="&#xe936;" glyph-name="Product-Image" horiz-adv-x="975" d="M819.2-29.867h-663.162c-39.010 0-78.019 14.629-102.4 43.886-29.257 29.257-43.886 63.39-43.886 102.4v663.162c0 39.010 14.629 78.019 43.886 102.4 29.257 29.257 63.39 43.886 102.4 43.886h658.286c39.010 0 78.019-14.629 102.4-43.886 29.257-29.257 43.886-63.39 43.886-102.4v-438.857c0 0 0 0 0 0v-219.429c0-39.010-14.629-78.019-43.886-102.4-24.381-34.133-58.514-48.762-97.524-48.762zM87.771 213.943v-92.648c0-19.505 9.752-39.010 19.505-53.638 14.629-14.629 34.133-19.505 53.638-19.505h658.286c19.505 0 39.010 9.752 53.638 19.505 14.629 14.629 19.505 34.133 19.505 53.638v204.8l-78.019 78.019c-29.257 29.257-78.019 29.257-102.4 0l-63.39-63.39 82.895-82.895c14.629-14.629 14.629-39.010 0-53.638s-39.010-14.629-53.638 0l-107.276 107.276c0 0 0 0 0 0s0 0 0 0l-141.41 141.41c-29.257 29.257-78.019 29.257-102.4 0l-238.933-238.933zM156.038 852.724c-19.505 0-39.010-9.752-53.638-19.505-9.752-19.505-14.629-34.133-14.629-53.638v-463.238l190.171 190.171c53.638 53.638 151.162 53.638 204.8 0l117.029-117.029 63.39 63.39c53.638 53.638 151.162 53.638 204.8 0l24.381-24.381v351.086c0 19.505-9.752 39.010-19.505 53.638-14.629 14.629-34.133 19.505-53.638 19.505h-663.162zM599.771 633.295c-19.505 0-39.010 14.629-39.010 39.010s14.629 39.010 34.133 39.010v0c24.381-4.876 39.010-24.381 39.010-43.886s-14.629-34.133-34.133-34.133z" />
<glyph unicode="&#xe937;" glyph-name="Product-Meta" horiz-adv-x="979" d="M636.661-32.835c-17.809 0-35.617 13.357-35.617 35.617v66.783h-227.061v-66.783c0-17.809-13.357-35.617-35.617-35.617s-35.617 13.357-35.617 35.617v66.783h-62.33c-35.617 0-66.783 13.357-93.496 40.070s-40.070 57.878-40.070 93.496v66.783h-62.33c-17.809 0-35.617 13.357-35.617 35.617s13.357 35.617 35.617 35.617h66.783v222.609h-66.783c-17.809 0-35.617 13.357-35.617 35.617s17.809 31.165 35.617 31.165h66.783v66.783c0 35.617 13.357 66.783 40.070 93.496 22.261 22.261 57.878 35.617 89.043 35.617h66.783v66.783c0 17.809 13.357 35.617 35.617 35.617s35.617-13.357 35.617-35.617v-66.783h231.513v66.783c0 17.809 13.357 35.617 35.617 35.617s35.617-13.357 35.617-35.617v-66.783h66.783c35.617 0 66.783-13.357 93.496-40.070s40.070-57.878 40.070-93.496v-66.783h53.426c17.809 0 35.617-13.357 35.617-35.617s-17.809-26.713-35.617-26.713h-66.783v-231.513h66.783c17.809 0 35.617-13.357 35.617-35.617s-13.357-35.617-35.617-35.617h-66.783v-66.783c0-35.617-13.357-71.235-40.070-93.496-26.713-26.713-57.878-40.070-93.496-40.070h-66.783v-66.783c4.452-8.904-13.357-26.713-31.165-26.713zM178.087 301.078v-97.948c0-17.809 8.904-35.617 17.809-44.522 13.357-13.357 26.713-17.809 44.522-17.809h494.191c17.809 0 35.617 8.904 44.522 17.809 13.357 13.357 17.809 31.165 17.809 44.522v494.191c0 17.809-8.904 35.617-17.809 44.522-13.357 13.357-31.165 17.809-44.522 17.809h-494.191c-17.809 0-35.617-8.904-44.522-17.809-13.357-13.357-17.809-26.713-17.809-44.522v-396.243zM636.661 265.461h-293.843c-17.809 0-35.617 13.357-35.617 35.617v293.843c0 17.809 13.357 35.617 35.617 35.617h298.296c17.809 0 35.617-13.357 35.617-35.617v-298.296c-4.452-17.809-22.261-31.165-40.070-31.165zM373.983 332.243h231.513v231.513h-231.513v-231.513z" />
<glyph unicode="&#xe938;" glyph-name="Product-Price" horiz-adv-x="801" d="M756.87 634.991l-267.13 267.13c-17.809 17.809-35.617 22.261-57.878 22.261h-280.487c-35.617 4.452-66.783-8.904-93.496-35.617-22.261-26.713-35.617-57.878-35.617-93.496v-694.539c0-35.617 13.357-66.783 40.070-93.496s57.878-40.070 93.496-40.070h151.374c17.809 0 35.617 4.452 48.974 8.904 17.809 4.452 31.165 17.809 40.070 26.713 13.357 13.357 22.261 26.713 26.713 44.522s8.904 31.165 8.904 48.974v115.757c71.235 8.904 124.661 57.878 124.661 111.304 0 57.878-53.426 102.4-124.661 111.304v102.4c4.452 0 8.904 0 13.357-4.452 13.357-4.452 26.713-13.357 35.617-22.261 4.452-4.452 13.357-8.904 22.261-8.904s17.809 4.452 22.261 8.904c13.357 13.357 13.357 35.617 0 48.974-17.809 17.809-40.070 31.165-62.33 40.070-4.452 0-17.809 4.452-26.713 4.452v8.904c0 22.261-17.809 35.617-35.617 35.617s-35.617-13.357-35.617-35.617v-8.904c-71.235-8.904-124.661-57.878-124.661-111.304 0-57.878 53.426-102.4 124.661-111.304v-97.948c-4.452 0-8.904 0-13.357 4.452-13.357 4.452-26.713 13.357-35.617 22.261-13.357 13.357-35.617 13.357-48.974 0s-13.357-35.617 0-48.974c17.809-17.809 40.070-31.165 62.33-40.070 13.357-4.452 22.261-8.904 35.617-8.904v-115.757c0-8.904 0-17.809-4.452-22.261-4.452-8.904-8.904-13.357-13.357-22.261-4.452-4.452-13.357-8.904-22.261-13.357s-17.809-4.452-22.261-4.452h-151.374c-17.809 0-35.617 8.904-44.522 17.809-13.357 13.357-17.809 31.165-17.809 44.522v698.991c0 17.809 8.904 35.617 17.809 44.522 13.357 13.357 31.165 17.809 44.522 17.809h276.035c4.452 0 8.904 0 13.357-4.452l267.13-267.13c4.452 0 4.452-4.452 4.452-8.904v-476.383c0-8.904 0-17.809-4.452-26.713s-8.904-13.357-13.357-22.261c-4.452-4.452-13.357-8.904-22.261-13.357s-17.809-4.452-26.713-4.452-35.617-13.357-35.617-35.617 13.357-35.617 35.617-35.617c17.809 0 35.617 4.452 48.974 8.904 17.809 8.904 31.165 17.809 44.522 26.713 13.357 13.357 22.261 26.713 26.713 44.522s8.904 31.165 8.904 48.974v485.287c4.452 22.261-4.452 40.070-17.809 57.878zM489.739 327.791c0-17.809-22.261-35.617-57.878-44.522v89.043c35.617-8.904 57.878-26.713 57.878-44.522zM311.652 492.522c0 17.809 22.261 35.617 57.878 44.522v-89.043c-35.617 4.452-57.878 26.713-57.878 44.522z" />
<glyph unicode="&#xe939;" glyph-name="Product-Rating" horiz-adv-x="975" d="M253.562 526.019c4.876-4.876 9.752-14.629 9.752-14.629l-24.381-87.771c-14.629-63.39 9.752-92.648 24.381-107.276s53.638-29.257 117.029 4.876l92.648 48.762c4.876 4.876 19.505 4.876 24.381 0l92.648-48.762c29.257-14.629 53.638-19.505 68.267-19.505 24.381 0 39.010 9.752 48.762 14.629 14.629 14.629 39.010 43.886 24.381 107.276l-24.381 87.771c0 4.876 0 14.629 4.876 14.629l78.019 68.267c43.886 39.010 39.010 78.019 34.133 92.648-4.876 19.505-24.381 53.638-87.771 63.39l-97.524 14.629c-4.876 0-14.629 9.752-19.505 9.752l-53.638 102.4c-19.505 39.010-53.638 58.514-87.771 58.514v0c-34.133 0-63.39-19.505-87.771-58.514l-43.886-97.524c0-4.876-9.752-9.752-19.505-9.752l-97.524-14.629c-58.514-9.752-78.019-43.886-87.771-63.39-4.876-34.133 4.876-68.267 39.010-97.524l73.143-68.267zM243.81 682.057l97.524 14.629c29.257 4.876 58.514 24.381 68.267 48.762l53.638 102.4c9.752 9.752 19.505 19.505 24.381 19.505s14.629-4.876 19.505-19.505c0 0 0 0 0 0l53.638-102.4c14.629-24.381 43.886-43.886 73.143-48.762l97.524-14.629c19.505-4.876 29.257-9.752 29.257-9.752s-4.876-9.752-14.629-19.505l-78.019-68.267c-19.505-24.381-34.133-63.39-24.381-92.648l24.381-87.771c4.876-19.505 4.876-29.257 0-29.257 0 0-14.629 0-39.010 9.752l-92.648 48.762c-29.257 14.629-68.267 14.629-97.524 0l-92.648-48.762c-24.381-9.752-34.133-9.752-39.010-9.752 0 0-4.876 9.752 0 29.257l24.381 87.771c9.752 29.257-4.876 68.267-24.381 87.771l-78.019 68.267c-14.629 14.629-14.629 19.505-14.629 19.505 0 4.876 4.876 9.752 29.257 14.629zM877.714 223.695h-780.19c-48.762 0-87.771-39.010-87.771-87.771v-97.524c0-48.762 39.010-87.771 87.771-87.771h780.19c48.762 0 87.771 39.010 87.771 87.771v97.524c0 48.762-39.010 87.771-87.771 87.771zM887.467 43.276c0-4.876-4.876-9.752-9.752-9.752h-780.19c-4.876 0-9.752 4.876-9.752 9.752v97.524c0 4.876 4.876 9.752 9.752 9.752h780.19c4.876 0 9.752-4.876 9.752-9.752v-97.524z" />
<glyph unicode="&#xe93a;" glyph-name="Product-Review" horiz-adv-x="1073" d="M804.571-54.248c-19.505 0-39.010 4.876-53.638 14.629l-209.676 151.162c-4.876 4.876-14.629 4.876-19.505 0l-209.676-151.162c-14.629-9.752-34.133-14.629-53.638-14.629 0 0 0 0 0 0-19.505 0-39.010 4.876-53.638 14.629s-24.381 24.381-34.133 43.886c-4.876 19.505-4.876 39.010 0 53.638l78.019 243.81c0 4.876 0 4.876 0 9.752s-4.876 4.876-4.876 9.752l-195.048 151.162c-14.629 14.629-24.381 29.257-34.133 43.886-4.876 19.505-4.876 39.010 0 53.638 9.752 19.505 19.505 39.010 34.133 48.762s34.133 14.629 53.638 14.629c0 0 0 0 0 0h258.438c4.876 0 4.876 0 9.752 4.876 4.876 0 4.876 4.876 4.876 9.752l78.019 243.81c0 0 0 0 0 0 4.876 19.505 14.629 34.133 34.133 43.886 29.257 24.381 73.143 24.381 102.4 0 14.629-9.752 24.381-24.381 34.133-43.886l78.019-243.81c0-4.876 4.876-4.876 4.876-9.752 4.876 0 4.876-4.876 9.752-4.876h258.438c19.505 0 39.010-4.876 53.638-14.629s24.381-24.381 34.133-43.886c4.876-19.505 4.876-39.010 0-53.638-14.629-19.505-24.381-34.133-39.010-48.762l-209.676-151.162c-4.876 0-4.876-4.876-4.876-9.752s0-4.876 0-9.752l78.019-243.81c4.876-19.505 4.876-39.010 0-53.638-4.876-19.505-14.629-34.133-34.133-43.886-9.752-9.752-29.257-14.629-48.762-14.629zM536.381 189.562c19.505 0 39.010-4.876 53.638-14.629l209.676-151.162c4.876 0 4.876-4.876 9.752-4.876s4.876 0 9.752 4.876c4.876 0 4.876 4.876 4.876 9.752s0 4.876 0 9.752l-78.019 243.81c-4.876 19.505-4.876 39.010 0 53.638 4.876 19.505 14.629 34.133 34.133 43.886l209.676 151.162c4.876 0 4.876 4.876 4.876 9.752s0 4.876 0 9.752-4.876 4.876-4.876 9.752c-4.876 0-4.876 4.876-9.752 4.876v0h-258.438c-19.505 0-39.010 4.876-53.638 14.629s-24.381 24.381-34.133 43.886l-78.019 243.81c0 4.876-4.876 4.876-4.876 9.752-4.876 4.876-14.629 4.876-19.505 0-4.876 0-4.876-4.876-4.876-9.752l-78.019-243.81c-14.629-24.381-24.381-39.010-39.010-48.762s-34.133-19.505-53.638-19.505h-253.562c-4.876 0-4.876 0-9.752-4.876-4.876 0-4.876-4.876-4.876-9.752s0-4.876 0-9.752 4.876-4.876 4.876-9.752l209.676-151.162c14.629-9.752 24.381-24.381 34.133-43.886 4.876-19.505 4.876-39.010 0-53.638l-78.019-243.81c0-4.876 0-4.876 0-9.752s4.876-4.876 4.876-9.752c4.876 0 4.876-4.876 9.752-4.876s4.876 0 9.752 4.876l209.676 151.162c4.876 19.505 24.381 24.381 43.886 24.381z" />
<glyph unicode="&#xe93b;" glyph-name="Product-Share" horiz-adv-x="931" d="M744.727-31.418c-13.964 0-32.582 0-46.545 4.655-32.582 9.309-65.164 27.927-83.782 55.855-23.273 27.927-37.236 55.855-41.891 93.091-4.655 23.273 0 46.545 4.655 69.818l-256 153.6c-18.618-18.618-37.236-37.236-60.509-46.545-37.236-18.618-74.473-18.618-116.364-13.964-37.236 9.309-74.473 32.582-97.745 60.509-23.273 32.582-37.236 69.818-37.236 107.055s13.964 79.127 37.236 107.055c23.273 32.582 60.509 51.2 97.745 60.509s79.127 4.655 116.364-13.964c23.273-9.309 46.545-27.927 60.509-51.2l256 144.291c-4.655 9.309-4.655 23.273-4.655 32.582 0 23.273 0 46.545 9.309 69.818s18.618 41.891 32.582 60.509c13.964 18.618 32.582 32.582 55.855 41.891 32.582 13.964 65.164 23.273 97.745 18.618s65.164-18.618 93.091-41.891c27.927-23.273 46.545-51.2 55.855-83.782s9.309-69.818-4.655-102.4c-9.309-32.582-32.582-60.509-60.509-83.782s-60.509-32.582-93.091-37.236c-32.582-4.655-69.818 4.655-97.745 23.273-18.618 9.309-37.236 23.273-51.2 41.891l-256-139.636c4.655-13.964 4.655-32.582 4.655-46.545s0-32.582-4.655-46.545l256-153.6c4.655 9.309 13.964 13.964 23.273 23.273 18.618 13.964 37.236 27.927 60.509 32.582 23.273 9.309 46.545 9.309 69.818 9.309s46.545-9.309 65.164-18.618c32.582-13.964 55.855-41.891 74.473-69.818s23.273-65.164 23.273-97.745-13.964-65.164-37.236-93.091c-23.273-27.927-51.2-46.545-83.782-60.509-23.273-9.309-41.891-9.309-60.509-9.309zM651.636 187.345c-9.309-18.618-13.964-37.236-9.309-60.509 4.655-18.618 9.309-41.891 23.273-55.855s32.582-27.927 51.2-32.582c18.618-4.655 41.891-4.655 60.509 0s37.236 18.618 51.2 37.236c13.964 18.618 18.618 37.236 23.273 55.855 0 18.618-4.655 41.891-13.964 60.509s-23.273 32.582-41.891 41.891c-13.964 4.655-27.927 9.309-37.236 9.309-13.964 0-27.927 0-41.891-4.655s-23.273-9.309-37.236-18.618c-13.964-9.309-23.273-18.618-27.927-32.582 0 0 0 0 0 0zM186.182 555.055c-9.309 0-13.964 0-23.273-4.655-23.273 0-46.545-13.964-60.509-32.582s-23.273-41.891-23.273-65.164 9.309-46.545 23.273-65.164 37.236-32.582 60.509-37.236c23.273-4.655 46.545-4.655 69.818 4.655s37.236 27.927 51.2 46.545c0 0 0 0 0 0 9.309 13.964 9.309 32.582 9.309 46.545s-4.655 32.582-9.309 46.545c0 0 0 0 0 0-13.964 23.273-32.582 41.891-51.2 51.2-13.964 9.309-32.582 9.309-46.545 9.309zM651.636 708.655c9.309-18.618 23.273-32.582 41.891-41.891s37.236-13.964 60.509-13.964c18.618 0 41.891 9.309 55.855 23.273 18.618 13.964 27.927 27.927 37.236 51.2 4.655 18.618 9.309 41.891 0 60.509-4.655 18.618-18.618 37.236-32.582 51.2s-37.236 23.273-55.855 23.273c-18.618 4.655-41.891 0-60.509-9.309-13.964-4.655-23.273-13.964-32.582-23.273s-13.964-23.273-18.618-37.236c-4.655-13.964-4.655-27.927-4.655-41.891 0-18.618 4.655-32.582 9.309-41.891 0 0 0 0 0 0z" />
<glyph unicode="&#xe93c;" glyph-name="Product-Size-Chart" d="M921.6 949.76h-81.92c-51.2 0-92.16-40.96-92.16-92.16v-819.2c0-51.2 40.96-92.16 92.16-92.16h81.92c51.2 0 92.16 40.96 92.16 92.16v819.2c0 51.2-40.96 92.16-92.16 92.16zM931.84 38.4c0-5.12-5.12-10.24-10.24-10.24h-81.92c-5.12 0-10.24 5.12-10.24 10.24v819.2c0 5.12 5.12 10.24 10.24 10.24h81.92c5.12 0 10.24-5.12 10.24-10.24v-819.2zM552.96 673.28h-81.92c-51.2 0-92.16-40.96-92.16-92.16v-542.72c0-51.2 40.96-92.16 92.16-92.16h81.92c51.2 0 92.16 40.96 92.16 92.16v542.72c-5.12 51.2-40.96 92.16-92.16 92.16zM563.2 38.4c0-5.12-5.12-10.24-10.24-10.24h-81.92c-5.12 0-10.24 5.12-10.24 10.24v542.72c0 5.12 5.12 10.24 10.24 10.24h81.92c5.12 0 10.24-5.12 10.24-10.24v-542.72zM184.32 396.8h-81.92c-51.2 0-92.16-40.96-92.16-92.16v-266.24c0-51.2 40.96-92.16 92.16-92.16h81.92c51.2 0 92.16 40.96 92.16 92.16v266.24c0 51.2-40.96 92.16-92.16 92.16zM199.68 38.4c0-5.12-5.12-10.24-10.24-10.24h-87.040c-5.12 0-10.24 5.12-10.24 10.24v266.24c0 5.12 5.12 10.24 10.24 10.24h81.92c5.12 0 10.24-5.12 10.24-10.24v-266.24z" />
<glyph unicode="&#xe93d;" glyph-name="Product-sku" horiz-adv-x="979" d="M489.739-28.383c-48.974 0-93.496 17.809-133.565 48.974-22.261 17.809-48.974 31.165-80.139 31.165-48.974 4.452-93.496 26.713-129.113 57.878-35.617 35.617-53.426 80.139-57.878 129.113 0 26.713-8.904 53.426-31.165 75.687-31.165 35.617-48.974 84.591-48.974 133.565s17.809 93.496 48.974 133.565c22.261 22.261 31.165 48.974 35.617 80.139 4.452 48.974 26.713 93.496 57.878 129.113 35.617 35.617 80.139 53.426 129.113 57.878v0c26.713 0 53.426 13.357 75.687 31.165 75.687 62.33 191.443 62.33 262.678 0 22.261-17.809 48.974-31.165 80.139-31.165 48.974-4.452 93.496-26.713 129.113-57.878 35.617-35.617 53.426-80.139 57.878-129.113 4.452-31.165 13.357-57.878 35.617-80.139 31.165-35.617 48.974-84.591 48.974-133.565s-17.809-93.496-48.974-133.565c-17.809-22.261-31.165-48.974-31.165-80.139-4.452-48.974-26.713-93.496-57.878-129.113-35.617-35.617-80.139-53.426-129.113-57.878-31.165-4.452-57.878-13.357-80.139-31.165-40.070-31.165-84.591-44.522-133.565-44.522zM489.739 862.052c-31.165 0-62.33-13.357-89.043-31.165-31.165-31.165-71.235-48.974-115.757-48.974-31.165-4.452-62.33-17.809-84.591-40.070s-40.070-53.426-40.070-89.043c-4.452-44.522-22.261-84.591-48.974-115.757-22.261-26.713-31.165-57.878-31.165-89.043s13.357-62.33 31.165-89.043c26.713-31.165 44.522-71.235 48.974-115.757 4.452-31.165 17.809-62.33 40.070-84.591s53.426-35.617 84.591-40.070c44.522-4.452 84.591-22.261 115.757-48.974 48.974-44.522 129.113-44.522 178.087 0 31.165 26.713 71.235 44.522 115.757 48.974 31.165 4.452 62.33 17.809 84.591 40.070s35.617 53.426 40.070 84.591c4.452 44.522 22.261 84.591 48.974 115.757 22.261 26.713 31.165 57.878 31.165 89.043s-13.357 62.33-31.165 89.043c-26.713 31.165-44.522 71.235-48.974 115.757-4.452 31.165-17.809 62.33-40.070 84.591-22.261 26.713-53.426 40.070-84.591 44.522-44.522 0-84.591 17.809-115.757 44.522-26.713 22.261-57.878 35.617-89.043 35.617zM440.765 314.435c-8.904 0-17.809 4.452-22.261 8.904l-102.4 102.4c-13.357 13.357-13.357 35.617 0 48.974s35.617 13.357 48.974 0l75.687-75.687 178.087 178.087c13.357 13.357 35.617 13.357 48.974 0s13.357-35.617 0-48.974l-200.348-200.348c-8.904-8.904-17.809-13.357-26.713-13.357z" />
</font>
</defs>
</svg>
